Хоббит: Битва пяти воинств / The Hobbit: The Battle of the Five Armies (2014) BDRip 720p | 48fps | Hardsub

 

Создавать темы 19-Мар-2015 19:44

Хоббит: Битва пяти воинств / The Hobbit: The Battle of the Five Armies (2014) BDRip 720p | 48fps | Hardsub«Последнее путешествие в Средиземье»- Год выхода: 2014
Жанр: Фэнтези, приключения
Режиссер: Питер Джексон
Продюсер: Кэролинн Каннингэм, Питер Джексон, Фрэнсис Уолш
В ролях:
Мартин Фриман, Иэн МакКеллен, Ричард Армитедж, Люк Эванс, Эванджелин Лилли, Ли Пейс, Орландо Блум, Бенедикт Камбербэтч, Кен Стотт, Эйдан Тернер
Описание фильма:
Когда отряд из тринадцати гномов нанимал хоббита Бильбо Бэгинса в качестве взломщика и четырнадцатого, «счастливого», участника похода к Одинокой горе, Бильбо полагал, что его приключения закончатся, когда он выполнит свою задачу — найдет сокровище, которое так необходимо предводителю гномов Торину. Путешествие в Эребор, захваченное драконом Смаугом королевство гномов, оказалось еще более опасным, чем предполагали гномы и даже Гэндальф — мудрый волшебник, протянувший Торину и его отряду руку помощи...
Страна: Новая Зеландия, США
Студия: Metro-Goldwyn-Mayer (MGM), New Line Cinema
Продолжительность: 02:24:28
Перевод: Дублированный (iTunes)
Субтитры:Вшитые, отключаемые
Язык субтитров:Русский (Full), Английский (Full)
Дата мировой премьеры: 1 декабря 2014
Дата российской премьеры: 11 декабря 2014, «Каро-Премьер»
Дата выхода DVD релиза: 17 апреля 2015, «CP Дистрибуция», «Lizard Cinema Trade»
Дата выхода Blu-Ray релиза: 17 апреля 2015, «CP Дистрибуция»
Формат: MKV
Кодек: MPEG-4 AVC/H.264
Качество: BDRip 720p
Видео: ~ 4919 Кбит/сек, 1280 x 544, 47.952 кадров/сек
Аудио: AC3 5.1, 48.0 KHz, 384 Кбит/сек - Русский

MediaInfo

Общее
Уникальный идентификатор : 249790309161896287015155240859230365425 (0xBBEBDD166A0B881A89B9C545394966F1)
Полное имя : D:\Торренты\The Hobbit. The Battle of the Five Armies 48fps.mkv
Формат : Matroska
Версия формата : Version 2
Размер файла : 5,46 Гбайт
Продолжительность : 2 ч. 24 м.
Общий поток : 5410 Кбит/сек
Дата кодирования : UTC 2015-03-17 19:26:29
Программа кодирования : mkvmerge v6.9.1 ('Blue Panther') 64bit built on Apr 18 2014 18:23:38
Библиотека кодирования : libebml v1.3.0 + libmatroska v1.4.1
Видео
Идентификатор : 1
Формат : AVC
Формат/Информация : Advanced Video Codec
Профиль формата : [email protected]
Параметр CABAC формата : Да
Параметр ReFrames формата : 6 кадров
Идентификатор кодека : V_MPEG4/ISO/AVC
Продолжительность : 2 ч. 24 м.
Битрейт : 4919 Кбит/сек
Ширина : 1280 пикселей
Высота : 544 пикселя
Соотношение сторон : 2,35:1
Режим частоты кадров : Постоянный
Частота кадров : 47,952 кадров/сек
Цветовое пространство : YUV
Субдискретизация насыщенности : 4:2:0
Битовая глубина : 8 бит
Тип развёртки : Прогрессивная
Бит/(Пиксели*Кадры) : 0.147
Размер потока : 4,96 Гбайт (91%)
Заголовок : Release by mimok
Библиотека кодирования : x264 core 130 r2273 b3065e6
Настройки программы : cabac=1 / ref=6 / deblock=1:0:0 / analyse=0x3:0x133 / me=umh / subme=8 / psy=1 / psy_rd=1.00:0.15 / mixed_ref=1 / me_range=20 / chroma_me=1 / trellis=2 / 8x8dct=1 / cqm=0 / deadzone=21,11 / fast_pskip=0 / chroma_qp_offset=-3 / threads=6 / lookahead_threads=2 / sliced_threads=0 / nr=0 / decimate=0 / interlaced=0 / bluray_compat=0 / constrained_intra=0 / bframes=8 / b_pyramid=2 / b_adapt=2 / b_bias=0 / direct=1 / weightb=1 / open_gop=0 / weightp=2 / keyint=250 / keyint_min=25 / scenecut=40 / intra_refresh=0 / rc=crf / mbtree=0 / crf=18.0 / qcomp=0.63 / qpmin=10 / qpmax=51 / qpstep=4 / ip_ratio=1.40 / pb_ratio=1.30 / aq=1:1.20
Default : Да
Forced : Нет
Аудио
Идентификатор : 2
Формат : AC-3
Формат/Информация : Audio Coding 3
Расширение режима : CM (complete main)
Параметр Endianness формата : Big
Идентификатор кодека : A_AC3
Продолжительность : 2 ч. 24 м.
Вид битрейта : Постоянный
Битрейт : 384 Кбит/сек
Каналы : 6 каналов
Расположение каналов : Front: L C R, Side: L R, LFE
Частота : 48,0 КГц
Битовая глубина : 16 бит
Метод сжатия : С потерями
Размер потока : 397 Мбайт (7%)
Заголовок : Dub
Язык : Russian
Default : Да
Forced : Нет
Текст #1
Идентификатор : 3
Формат : UTF-8
Идентификатор кодека : S_TEXT/UTF8
Идентификатор кодека/Информация : UTF-8 Plain Text
Заголовок : Full
Язык : Russian
Default : Да
Forced : Нет
Текст #2
Идентификатор : 4
Формат : UTF-8
Идентификатор кодека : S_TEXT/UTF8
Идентификатор кодека/Информация : UTF-8 Plain Text
Заголовок : Full
Язык : English
Default : Нет
Forced : Нет

Скриншоты:

Яндекс.Метрика
Рейтинг@Mail.ru