Красное и черное / Le rouge et le noir [2 серии](Клод Отан-Лара)[1954, Драма, HDRip] [H.264]

 

Создавать темы 25-Ноя-2013 03:04

Красное и черное / Le rouge et le noir (1954) HDRip [H.264] [2 серии]- Год выпуска: 1954
Жанр: Драма
Производство: Италия, Франция/Documento, Franco London Films
Описание фильма:
По одноименному роману Стендаля. Жюльен Сорель по рождению принадлежит к самым низшим слоям общества, но он молод, умен, красив и очень амбициозен. Его путь наверх начинается в стенах духовной семинарии, а продолжается в доме состоятельных буржуа, где Сорель преподает детям латынь. Жена хозяина дома, мадам де Реналь, без памяти влюбляется в юного учителя, и тот решает использовать это искреннее чувство в своих далеко идущих жизненных планах…
Режиссер: Клод Отан-Лара
Сценарий: Жан Оранш, Клод Отан-Лара, Пьер Бост
Продюсер: Генри Дойчмайстер, Джанни Хект Лукари
Актеры: Жерар Филип, Даниель Дарьё, Антонелла Луальди, Жан Меркюр, Жан Мартинелли, Антуан Бальпетре, Анна-Мария Сандри, Андре Бруно, Мирко Эллис, Сюзанн Ниветт
Продолжительность: 01:44:50 + 01:28:06
Качество видео: HDRip
Перевод: Дублированный (Киностудия им.Горького, 1955г)
[img]http://www.kinopoisk.ru/film/70932/[/img]
Дата мировой премьеры: 29 октября 1954
Дата выхода DVD релиза: 26 марта 2009, «Cinema Prestige»
Видеокодек: MPEG-4 AVC/H.264
Битрейт видео:
1 серия: ~1793 Кбит/сек
2 серия: ~2169 Кбит/сек
Размер кадра: 720x544
Аудиокодек: AC3 2.0
Битрейт аудио: 192 kbps

Знаете ли вы, что...

Премьера во Франции состоялась 29 октября 1954 года, в Италии — 28 октября 1955 года, в СССР — в октябре 1955 года, в США — 8 апреля 1958 года.
На момент выхода фильма Жерару Филипу было 32 года. Разница в возрасте с его персонажем составляла 10 лет.
До роли Жюльена Сореля Жерар Филип уже принимал участие в экранизации романа Стендаля. Фильм «Пармская обитель» вышел в 1948 году.
Хронометраж фильма оказался слишком велик для широкого проката, поэтому фильм разбили на две серии.

MediaInfo 1:

Общее
Уникальный идентификатор : 207358759157353753716602569596774017693 (0x9BFFD827451F9D5FA7536BCC197A6A9D)
Полное имя : H:\Downloads\Красное и чёрное\Красное и чёрное. Часть 1.mkv
Формат : Matroska
Размер файла : 1,45 Гбайт
Продолжительность : 1 ч. 44 м.
Общий поток : 1987 Кбит/сек
Дата кодирования : UTC 2013-08-25 02:28:12
Программа кодирования : mkvmerge v5.8.0 ('No Sleep / Pillow') built on Sep 2 2012 15:37:04
Библиотека кодирования : libebml v1.2.3 + libmatroska v1.3.0
Видео
Идентификатор : 1
Формат : AVC
Формат/Информация : Advanced Video Codec
Профиль формата : [url=mailto:[email protected]][email protected][/url]
Параметр CABAC формата : Да
Параметр ReFrames формата : 8 кадров
Идентификатор кодека : V_MPEG4/ISO/AVC
Продолжительность : 1 ч. 44 м.
Битрейт : 1793 Кбит/сек
Ширина : 720 пикс.
Высота : 544 пикс.
Соотношение сторон : 4:3
Частота кадров : 24,000 кадр/сек
Цветовое пространство : YUV
Подвыборка цветности : 4:2:0
Битовая глубина : 8 бит
Тип развёртки : Прогрессивная
Бит/(Пиксели*Кадры) : 0.191
Размер потока : 1,29 Гбайт (88%)
Библиотека кодирования : x264 core 125 r2208 d9d2288
Настройки программы : cabac=1 / ref=8 / deblock=1:-1:-1 / analyse=0x3:0x133 / me=umh / subme=9 / psy=1 / psy_rd=1.00:0.10 / mixed_ref=1 / me_range=32 / chroma_me=1 / trellis=2 / 8x8dct=1 / cqm=0 / deadzone=21,11 / fast_pskip=0 / chroma_qp_offset=-3 / threads=6 / lookahead_threads=1 / sliced_threads=0 / nr=0 / decimate=1 / interlaced=0 / bluray_compat=0 / constrained_intra=0 / bframes=3 / b_pyramid=2 / b_adapt=2 / b_bias=0 / direct=3 / weightb=1 / open_gop=0 / weightp=2 / keyint=250 / keyint_min=25 / scenecut=40 / intra_refresh=0 / rc_lookahead=60 / rc=2pass / mbtree=1 / bitrate=1793 / ratetol=1.0 / qcomp=0.60 / qpmin=10 / qpmax=51 / qpstep=4 / cplxblur=20.0 / qblur=0.5 / ip_ratio=1.40 / aq=1:1.00
Аудио
Идентификатор : 2
Формат : AC-3
Формат/Информация : Audio Coding 3
Расширение режима : CM (complete main)
Идентификатор кодека : A_AC3
Продолжительность : 1 ч. 44 м.
Вид битрейта : Постоянный
Битрейт : 192 Кбит/сек
Каналы : 2 канала
Расположение каналов : Front: L R
Частота : 48,0 КГц
Битовая глубина : 16 бит
Метод сжатия : С потерями
Размер потока : 144 Мбайт (10%)
Заголовок : Дубляж
Язык : Russian

MediaInfo 2:

Общее
Уникальный идентификатор : 233659616742239105471164507493455825184 (0xAFC9348C6E17062999C37BBC9DEF0920)
Полное имя : H:\Downloads\Красное и чёрное\Красное и чёрное. Часть 2.mkv
Формат : Matroska
Размер файла : 1,45 Гбайт
Продолжительность : 1 ч. 28 м.
Общий поток : 2363 Кбит/сек
Дата кодирования : UTC 2013-08-25 10:19:47
Программа кодирования : mkvmerge v5.8.0 ('No Sleep / Pillow') built on Sep 2 2012 15:37:04
Библиотека кодирования : libebml v1.2.3 + libmatroska v1.3.0
Видео
Идентификатор : 1
Формат : AVC
Формат/Информация : Advanced Video Codec
Профиль формата : [url=mailto:[email protected]][email protected][/url]
Параметр CABAC формата : Да
Параметр ReFrames формата : 8 кадров
Идентификатор кодека : V_MPEG4/ISO/AVC
Продолжительность : 1 ч. 28 м.
Битрейт : 2169 Кбит/сек
Ширина : 720 пикс.
Высота : 544 пикс.
Соотношение сторон : 4:3
Частота кадров : 24,000 кадр/сек
Цветовое пространство : YUV
Подвыборка цветности : 4:2:0
Битовая глубина : 8 бит
Тип развёртки : Прогрессивная
Бит/(Пиксели*Кадры) : 0.231
Размер потока : 1,31 Гбайт (90%)
Библиотека кодирования : x264 core 125 r2208 d9d2288
Настройки программы : cabac=1 / ref=8 / deblock=1:-1:-1 / analyse=0x3:0x133 / me=umh / subme=9 / psy=1 / psy_rd=1.00:0.10 / mixed_ref=1 / me_range=32 / chroma_me=1 / trellis=2 / 8x8dct=1 / cqm=0 / deadzone=21,11 / fast_pskip=0 / chroma_qp_offset=-3 / threads=6 / lookahead_threads=1 / sliced_threads=0 / nr=0 / decimate=1 / interlaced=0 / bluray_compat=0 / constrained_intra=0 / bframes=3 / b_pyramid=2 / b_adapt=2 / b_bias=0 / direct=3 / weightb=1 / open_gop=0 / weightp=2 / keyint=250 / keyint_min=25 / scenecut=40 / intra_refresh=0 / rc_lookahead=60 / rc=2pass / mbtree=1 / bitrate=2169 / ratetol=1.0 / qcomp=0.60 / qpmin=10 / qpmax=51 / qpstep=4 / cplxblur=20.0 / qblur=0.5 / ip_ratio=1.40 / aq=1:1.00
Аудио
Идентификатор : 2
Формат : AC-3
Формат/Информация : Audio Coding 3
Расширение режима : CM (complete main)
Идентификатор кодека : A_AC3
Продолжительность : 1 ч. 28 м.
Вид битрейта : Постоянный
Битрейт : 192 Кбит/сек
Каналы : 2 канала
Расположение каналов : Front: L R
Частота : 48,0 КГц
Битовая глубина : 16 бит
Метод сжатия : С потерями
Размер потока : 121 Мбайт (8%)
Заголовок : Дубляж
Язык : Russian

Скриншоты


Яндекс.Метрика
Рейтинг@Mail.ru