[ Сегодня на трекере фрилич! Идет свободное скачивание без начисления Download ]

Однажды в Америке / Once Upon a Time in America (Серджио Леоне)[1984,Драма, криминал, BDRip] [1080p] [hand made 60fps]

 

Создавать темы 25-Ноя-2013 02:58

Однажды в Америке / Once Upon a Time in America (1984) BDRip [1080p] [hand made 60fps]
«As boys, they made a pact to share their fortunes, their loves, their lives. As men, they shared a dream to rise from poverty to power. Forging an empire built on greed, violence and betrayal, their dream would end as a mystery that refuse to die.»
- Русское название: Однажды в Америке
Оригинальное название: Once Upon a Time in America
Год выпуска: 1984
Производство: Италия, США
Жанр: Драма, криминал-Перевод:
Профессиональный (многоголосый закадровый) - НТВ+
Профессиональный (многоголосый закадровый) - Позитив-Мультимедиа
Профессиональный (многоголосый закадровый) - Карусель/Киномания
Авторский (двухголосый закадровый) - Конкин и тётя
Авторский (двухголосый закадровый) - П.Гланц и И.Королева
Авторский (одноголосый закадровый) - О.Борисов
Авторский (одноголосый закадровый) - Ю.Сербин
Авторский (одноголосый закадровый) - Л.Володарский
Авторский (одноголосый закадровый) - Ю.Живов
Авторский (одноголосый закадровый) - А.Гаврилов (ранний перевод)
Авторский (одноголосый закадровый) - А.Гаврилов (поздний перевод)
Авторский (одноголосый закадровый) - А.Михалев
Авторский (одноголосый закадровый) - В.Горчаков-Дата мировой премьеры:17 февраля 1984
Дата выхода DVD релиза: 24 мая 2012, «CP Дистрибуция»-Режиссер: Серджио Леоне
Продюсер: Арнон Милчэн, Клаудио Манчини
Актеры: Роберт Де Ниро, Джеймс Вудс, Элизабет МакГоверн, Джо Пеши, Берт Янг, Тьюзди Уэлд, Трит Уильямс, Дэнни Айелло, Ричард Брайт, Джеймс Хейден-Описание фильма:
В бурные двадцатые годы, когда Америка веселилась под звуки джаза и каждый бродяга мечтал стать миллионером, в трущобах Нью-Йорка встретились несколько отчаянных парней. Убирая с дороги конкурентов, безжалостно карая предателей и нагло проворачивая хитроумные аферы, они стали королями преступного мира золотой эры «сухого закона». Они поклялись отдать жизнь друг за друга, зная, что самое главное для них — это дружба, долг и справедливость — не утопить в реках крови и бездонном океане денег. Спустя много лет судьба жестоко обошлась с легендарными гангстерами, заставив их исполнить свою клятву. Это случилось однажды в Америке…-[img]http://www.kinopoisk.ru/film/469/[/img]СЭМПЛ -Продолжительность: 03:49:19
Качество видео: BDRip

Дополнительно :

Перед тем , как качать основной файл , скачивайте сэмпл , для проверки воспроизведения данного релиза на вашем оборудовании !!!

MediaInfo + Bitrate Viewer

Writing application : mkvmerge v3.4.0 ('Rapunzel') сборка от May 15 2010 09:38:20
Writing library : libebml v0.8.0 + libmatroska v0.9.0

Video
ID : 1
Format : AVC
Format/Info : Advanced Video Codec
Format profile : [url=mailto:[email protected]][email protected][/url]
Format settings, CABAC : Yes
Format settings, ReFrames : 4 frames
Codec ID : V_MPEG4/ISO/AVC
Bit rate : 30.1 Mbps
Width : 1 920 pixels
Height : 1 080 pixels
Display aspect ratio : 16:9
Frame rate mode : Variable
Original frame rate : 59.940 fps
Color space : YUV
Chroma subsampling : 4:2:0
Bit depth : 8 bits
Scan type : Progressive
Bits/(Pixel*Frame) : 0.242
Writing library : x264 core 130 r2273 b3065e6
Encoding settings : cabac=1 / ref=4 / deblock=1:-3:-3 / analyse=0x3:0x133 / me=esa / subme=10 / psy=1 / psy_rd=1.00:0.00 / mixed_ref=1 / me_range=32 / chroma_me=1 / trellis=2 / 8x8dct=1 / cqm=0 / deadzone=21,11 / fast_pskip=1 / chroma_qp_offset=-2 / threads=12 / lookahead_threads=2 / sliced_threads=0 / nr=0 / decimate=1 / interlaced=0 / bluray_compat=0 / constrained_intra=0 / bframes=8 / b_pyramid=2 / b_adapt=2 / b_bias=0 / direct=3 / weightb=1 / open_gop=0 / weightp=2 / keyint=599 / keyint_min=59 / scenecut=40 / intra_refresh=0 / rc_lookahead=60 / rc=2pass / mbtree=1 / bitrate=30088 / ratetol=1.0 / qcomp=0.60 / qpmin=0 / qpmax=69 / qpstep=4 / cplxblur=20.0 / qblur=0.5 / vbv_maxrate=62500 / vbv_bufsize=78125 / nal_hrd=none / ip_ratio=1.40 / aq=1:1.00
Language : English
Default : No
Forced : No
Audio #1
ID : 2
Format : AC-3
Format/Info : Audio Coding 3
Mode extension : CM (complete main)
Format settings, Endianness : Big
Codec ID : A_AC3
Duration : 3h 49mn
Bit rate mode : Constant
Bit rate : 448 Kbps
Channel(s) : 6 channels
Channel positions : Front: L C R, Side: L R, LFE
Sampling rate : 48.0 KHz
Bit depth : 16 bits
Compression mode : Lossy
Stream size : 735 MiB (1%)
Title : |Многоголосый закадровый, НТВ+|
Language : Russian
Default : No
Forced : No
Audio #2
ID : 3
Format : AC-3
Format/Info : Audio Coding 3
Mode extension : CM (complete main)
Format settings, Endianness : Big
Codec ID : A_AC3
Duration : 3h 49mn
Bit rate mode : Constant
Bit rate : 640 Kbps
Channel(s) : 6 channels
Channel positions : Front: L C R, Side: L R, LFE
Sampling rate : 48.0 KHz
Bit depth : 16 bits
Compression mode : Lossy
Stream size : 1.03 GiB (2%)
Title : |Многоголосый закадровый, Позитив-Мультимедиа|
Language : Russian
Default : Yes
Forced : No
Audio #3
ID : 4
Format : AC-3
Format/Info : Audio Coding 3
Mode extension : CM (complete main)
Format settings, Endianness : Big
Codec ID : A_AC3
Duration : 3h 49mn
Bit rate mode : Constant
Bit rate : 448 Kbps
Channel(s) : 6 channels
Channel positions : Front: L C R, Side: L R, LFE
Sampling rate : 48.0 KHz
Bit depth : 16 bits
Compression mode : Lossy
Stream size : 735 MiB (1%)
Title : |Многоголосый закадровый, Карусель/Киномания|
Language : Russian
Default : No
Forced : No
Audio #4
ID : 5
Format : AC-3
Format/Info : Audio Coding 3
Mode extension : CM (complete main)
Format settings, Endianness : Big
Codec ID : A_AC3
Duration : 3h 49mn
Bit rate mode : Constant
Bit rate : 192 Kbps
Channel(s) : 2 channels
Channel positions : Front: L R
Sampling rate : 48.0 KHz
Bit depth : 16 bits
Compression mode : Lossy
Stream size : 315 MiB (1%)
Title : |Двухголосый закадровый, Конкин и тётя|
Language : Russian
Default : No
Forced : No
Audio #5
ID : 6
Format : AC-3
Format/Info : Audio Coding 3
Mode extension : CM (complete main)
Format settings, Endianness : Big
Codec ID : A_AC3
Duration : 3h 49mn
Bit rate mode : Constant
Bit rate : 640 Kbps
Channel(s) : 6 channels
Channel positions : Front: L C R, Side: L R, LFE
Sampling rate : 48.0 KHz
Bit depth : 16 bits
Compression mode : Lossy
Stream size : 1.03 GiB (2%)
Title : |Двухголосый закадровый, П.Гланц и И.Королева|
Language : Russian
Default : No
Forced : No
Audio #6
ID : 7
Format : AC-3
Format/Info : Audio Coding 3
Mode extension : CM (complete main)
Format settings, Endianness : Big
Codec ID : A_AC3
Duration : 3h 49mn
Bit rate mode : Constant
Bit rate : 192 Kbps
Channel(s) : 2 channels
Channel positions : Front: L R
Sampling rate : 48.0 KHz
Bit depth : 16 bits
Compression mode : Lossy
Stream size : 315 MiB (1%)
Title : |Одноголосый закадровый, О.Борисов|
Language : Russian
Default : No
Forced : No
Audio #7
ID : 8
Format : AC-3
Format/Info : Audio Coding 3
Mode extension : CM (complete main)
Format settings, Endianness : Big
Codec ID : A_AC3
Duration : 3h 49mn
Bit rate mode : Constant
Bit rate : 640 Kbps
Channel(s) : 6 channels
Channel positions : Front: L C R, Side: L R, LFE
Sampling rate : 48.0 KHz
Bit depth : 16 bits
Compression mode : Lossy
Stream size : 1.03 GiB (2%)
Title : |Одноголосый закадровый, Ю.Сербин|
Language : Russian
Default : No
Forced : No
Audio #8
ID : 9
Format : AC-3
Format/Info : Audio Coding 3
Mode extension : CM (complete main)
Format settings, Endianness : Big
Codec ID : A_AC3
Duration : 3h 49mn
Bit rate mode : Constant
Bit rate : 640 Kbps
Channel(s) : 6 channels
Channel positions : Front: L C R, Side: L R, LFE
Sampling rate : 48.0 KHz
Bit depth : 16 bits
Compression mode : Lossy
Stream size : 1.03 GiB (2%)
Title : |Одноголосый закадровый, Л.Володарский|
Language : Russian
Default : No
Forced : No
Audio #9
ID : 10
Format : AC-3
Format/Info : Audio Coding 3
Mode extension : CM (complete main)
Format settings, Endianness : Big
Codec ID : A_AC3
Duration : 3h 49mn
Bit rate mode : Constant
Bit rate : 640 Kbps
Channel(s) : 6 channels
Channel positions : Front: L C R, Side: L R, LFE
Sampling rate : 48.0 KHz
Bit depth : 16 bits
Compression mode : Lossy
Stream size : 1.03 GiB (2%)
Title : |Одноголосый закадровый, Ю.Живов|
Language : Russian
Default : No
Forced : No
Audio #10
ID : 11
Format : AC-3
Format/Info : Audio Coding 3
Mode extension : CM (complete main)
Format settings, Endianness : Big
Codec ID : A_AC3
Duration : 3h 49mn
Bit rate mode : Constant
Bit rate : 192 Kbps
Channel(s) : 2 channels
Channel positions : Front: L R
Sampling rate : 48.0 KHz
Bit depth : 16 bits
Compression mode : Lossy
Stream size : 315 MiB (1%)
Title : |Одноголосый закадровый, А.Гаврилов (ранний перевод)|
Language : Russian
Default : No
Forced : No
Audio #11
ID : 12
Format : AC-3
Format/Info : Audio Coding 3
Mode extension : CM (complete main)
Format settings, Endianness : Big
Codec ID : A_AC3
Duration : 3h 49mn
Bit rate mode : Constant
Bit rate : 192 Kbps
Channel(s) : 2 channels
Channel positions : Front: L R
Sampling rate : 48.0 KHz
Bit depth : 16 bits
Compression mode : Lossy
Stream size : 315 MiB (1%)
Title : |Одноголосый закадровый, А.Гаврилов (поздний перевод)|
Language : Russian
Default : No
Forced : No
Audio #12
ID : 13
Format : AC-3
Format/Info : Audio Coding 3
Mode extension : CM (complete main)
Format settings, Endianness : Big
Codec ID : A_AC3
Duration : 3h 49mn
Bit rate mode : Constant
Bit rate : 192 Kbps
Channel(s) : 2 channels
Channel positions : Front: L R
Sampling rate : 48.0 KHz
Bit depth : 16 bits
Compression mode : Lossy
Stream size : 315 MiB (1%)
Title : |Одноголосый закадровый, А.Михалев|
Language : Russian
Default : No
Forced : No
Audio #13
ID : 14
Format : AC-3
Format/Info : Audio Coding 3
Mode extension : CM (complete main)
Format settings, Endianness : Big
Codec ID : A_AC3
Duration : 3h 49mn
Bit rate mode : Constant
Bit rate : 192 Kbps
Channel(s) : 2 channels
Channel positions : Front: L R
Sampling rate : 48.0 KHz
Bit depth : 16 bits
Compression mode : Lossy
Stream size : 315 MiB (1%)
Title : |Одноголосый закадровый, В.Горчаков|
Language : Russian
Default : No
Forced : No
Видеокодек: MPEG-4 AVC/H.264
Битрейт видео: 30.1 Mbps
Размер кадра: 1920 x 1080 (1.778)
Аудиокодек: AC3, 6ch, 2ch, 48.0 KHz--Аудио 1 : 448 Kbps, 6ch - НТВ+
Аудио 2 : 640 Kbps, 6ch - Позитив-Мультимедиа
Аудио 3 : 448 Kbps, 6ch - Карусель/Киномания
Аудио 4 : 192 Kbps, 2ch - Конкин и тётя
Аудио 5 : 640 Kbps, 6ch - П.Гланц и И.Королева
Аудио 6 : 192 Kbps, 2ch - О.Борисов
Аудио 7 : 640 Kbps, 6ch - Ю.Сербин
Аудио 8 : 640 Kbps, 6ch - Л.Володарский
Аудио 9 : 640 Kbps, 6ch - Ю.Живов
Аудио 10 : 192 Kbps, 2ch - А.Гаврилов (ранний перевод)
Аудио 11 : 192 Kbps, 2ch - А.Гаврилов (поздний перевод)
Аудио 12 : 192 Kbps, 2ch - А.Михалев
Аудио 13 : 192 Kbps, 2ch - В.Горчаков--

Скриншоты



Создавать темы 25-Ноя-2013 10:27 (спустя 7 часов)

Топик был перенесен из форума Отечественная Классика (HD*Rip/LQ, DVDRip, SATRip, VHSRip) в форум Зарубежная Классика (HD)
[email protected]
Яндекс.Метрика
Рейтинг@Mail.ru