[ Сегодня на трекере фрилич! Идет свободное скачивание без начисления Download ]

P-51: Истребитель драконов / P-51 Dragon Fighter (2014) BDRip [1080p] [Line]

 

Создавать темы 19-Мар-2015 03:01

-P-51: Истребитель драконов / P-51 Dragon Fighter (2014) BDRip [1080p]- Производство: США, Archstone Pictures, 424 Post, ISS Prop House
Жанр: Фантастика, Фэнтези, Боевик
Режиссер: Марк Аткинс
Актеры: Скотт Мартин, Стефани Беран, Росс Брукс, Осман Сойкут, Роберт Пайк, Дэниэл Том Рэчфорд, Клинт Гленн, Трей МакКерли, Мэдисон Бойд, Стивен Сьютс
Описание фильма:
1943 год. В разгар Второй мировой войны нацисты используют против войск секретное оружие. Это оружие — живые драконы, которые были обнаружены в Северной Африке. Единственная надежда войск союзников — эскадрилья истребителей P-51, которая должна вступить в бой с древними чудовищами. На плечи пилотов эскадрильи ложится самое ответственное задание в их жизни. От исхода миссии будет зависеть исход войны…

Дата мировой премьеры: 19 августа 2014
Дата российской премьеры: 19 марта 2015
Продолжительность: 01:24:25
Качество видео: BDRip
Перевод: Многоголосый закадровый, профессиональный (Чистый звук)
Субтитры: Отсутствуют
Видеокодек: MPEG-4 AVC
Битрейт видео: ~9 928 Кбит/с
Размер кадра: 1920x1080
Аудио 1: Русский AC3, 2 ch, 256 Кбит/с
Аудио 2: Английский DTS, 6 ch, 960 Кбит/с-

MediaInfo:

General
Complete name : O:\P51.Istrebitel.Drakonov.2014.P.BDRip.1080p.mkv
Format : Matroska
File size : 6.70 GiB
Duration : 1h 24mn
Overall bit rate : 11.4 Mbps
Movie name : P51.Istrebitel.Drakonov.2014.P.BDRip.1080p.
Encoded date : UTC 2015-03-15 14:25:07
Writing application : mkvmerge v7.7.0 ('Six Voices') 32bit built on Feb 28 2015 23:23:00
Writing library : libebml v1.3.1 + libmatroska v1.4.2
Video
ID : 1
Format : AVC
Format/Info : Advanced Video Codec
Format profile : [url=mailto:[email protected]][email protected][/url]
Format settings, CABAC : Yes
Format settings, ReFrames : 4 frames
Muxing mode : Container [email protected]
Codec ID : V_MPEG4/ISO/AVC
Duration : 1h 24mn
Bit rate : 9 928 Kbps
Nominal bit rate : 10.2 Mbps
Width : 1 920 pixels
Height : 1 080 pixels
Display aspect ratio : 16:9
Frame rate : 23.976 fps
Resolution : 8 bits
Colorimetry : 4:2:0
Scan type : Progressive
Bits/(Pixel*Frame) : 0.200
Stream size : 5.85 GiB (87%)
Title : P51.Istrebitel.Drakonov.2014.P.BDRip.1080p.[3imeMachi9e]
Writing library : x264 core 142 r2479 dd79a61
Encoding settings : cabac=1 / ref=4 / deblock=1:-3:-3 / analyse=0x3:0x113 / me=umh / subme=8 / psy=1 / psy_rd=1.00:0.00 / mixed_ref=1 / me_range=16 / chroma_me=1 / trellis=1 / 8x8dct=1 / cqm=0 / deadzone=21,11 / fast_pskip=1 / chroma_qp_offset=-1 / threads=12 / lookahead_threads=2 / sliced_threads=0 / nr=0 / decimate=1 / interlaced=0 / bluray_compat=0 / constrained_intra=0 / bframes=3 / b_pyramid=2 / b_adapt=2 / b_bias=0 / direct=3 / weightb=1 / open_gop=0 / weightp=2 / keyint=240 / keyint_min=23 / scenecut=40 / intra_refresh=0 / rc_lookahead=50 / rc=2pass / mbtree=1 / bitrate=10159 / ratetol=1.0 / qcomp=0.60 / qpmin=10 / qpmax=51 / qpstep=4 / cplxblur=20.0 / qblur=0.5 / ip_ratio=1.40 / aq=1:1.00
Audio #1
ID : 2
Format : AC-3
Format/Info : Audio Coding 3
Codec ID : A_AC3
Duration : 1h 24mn
Bit rate mode : Constant
Bit rate : 256 Kbps
Channel(s) : 2 channels
Channel positions : L R
Sampling rate : 48.0 KHz
Stream size : 155 MiB (2%)
Title : Line - P51.Istrebitel.Drakonov.2014.P.BDRip.1080p.[3imeMachi9e]
Language : Russian
Audio #2
ID : 3
Format : DTS
Format/Info : Digital Theater Systems
Codec ID : A_DTS
Duration : 1h 24mn
Bit rate mode : Constant
Bit rate : 960 Kbps
Channel(s) : 6 channels
Channel positions : Front: L C R, Surround: L R, LFE
Sampling rate : 48.0 KHz
Resolution : 24 bits
Stream size : 580 MiB (8%)
Title : DTS - P51.Istrebitel.Drakonov.2014.P.BDRip.1080p.[3imeMachi9e]
Menu
00:00:00.000 : en:00:00:00.000
00:09:59.974 : en:00:09:59.974
00:19:59.990 : en:00:19:59.990
00:29:59.965 : en:00:29:59.965
00:39:59.981 : en:00:39:59.981
00:49:59.997 : en:00:49:59.997
00:59:59.971 : en:00:59:59.971
01:09:59.987 : en:01:09:59.987
01:19:59.962 : en:01:19:59.962
-Скриншоты:
Благодарности, а также конструктивное обсуждение раздачи способствует ее долгожительству и вдохновляет автора на создание новых.
Яндекс.Метрика
Рейтинг@Mail.ru