[ Сегодня на трекере фрилич! Идет свободное скачивание без начисления Download ]

Корея на прицеле 2.0 / Korea 2.0 (2014-2015) WEBRip [H.264/1080p-LQ] (Обновляемая)

 

Создавать темы 19-Мар-2015 02:44

-Корея на прицеле 2.0 / Korea 2.0 (2014-2015) WEBRip [H.264/1080p-LQ] (Обновляемая)- Производство: Корея, SpoTV Games HD
Жанр: Игровое видео
Актеры: Корейские прогеймеры
Описание фильма:
Корея на прицеле 2.0 - трансляции GSL, Proleague, Starleague турниров по StarCraft II на русском языке. Комментирует Алексей Трушляков (Alex 007). В раздаче сезон конца 2014 года - 2015 года.
Продолжительность: 157:32:06
Качество видео: WEBRip
Перевод: Одноголосый закадровый - Студия Алексея Трушлякова (Alex 007)
Видеокодек: MPEG-4 AVC/H.264
Битрейт видео: ~2800 kb/s
Размер кадра: 1920x1080 (16:9)
Аудиокодек: AAC
Битрейт аудио: 125 kb/s, 2 ch

MediaInfo

Общее
Полное имя                               : F:\korea2\VODs\Корея 2.0 - Пролига 2015, Раунд 1\Финал плей-офф\2015-02-14_korea_2-0_SKT_JinAir.flv
Формат                                   : Flash Video
Размер файла                             : 3,32 Гбайт
Продолжительность                        : 2 ч. 41 м.
Общий поток                              : 2942 Кбит/сек
Видео
Формат                                   : AVC
Формат/Информация                        : Advanced Video Codec
Профиль формата                          : [url=mailto:[email protected]][email protected][/url]
Параметр CABAC формата                   : Да
Параметр ReFrames формата                : 4 кадра
Идентификатор кодека                     : 7
Продолжительность                        : 2 ч. 41 м.
Вид битрейта                             : Постоянный
Битрейт                                  : 2800 Кбит/сек
Ширина                                   : 1920 пикселей
Высота                                   : 1080 пикселей
Соотношение сторон                       : 16:9
Режим частоты кадров                     : Постоянный
Частота кадров                           : 1000,000 кадров/сек
Цветовое пространство                    : YUV
Субдискретизация насыщенности            : 4:2:0
Битовая глубина                          : 8 бит
Тип развёртки                            : Прогрессивная
Бит/(Пиксели*Кадры)                      : 0.001
Размер потока                            : 3,16 Гбайт (95%)
Аудио
Формат                                   : AAC
Формат/Информация                        : Advanced Audio Codec
Профиль формата                          : LC
Идентификатор кодека                     : 10
Продолжительность                        : 2 ч. 41 м.
Битрейт                                  : 125 Кбит/сек
Каналы                                   : 2 канала
Расположение каналов                     : Front: L R
Частота                                  : 44,1 КГц
Метод сжатия                             : С потерями
Задержка видео                           : 2 мс.
Размер потока                            : 145 Мбайт (4%)

Внимание! Раздача ведётся путём добавления новых серий

Внимание! Раздача ведётся путём добавления новых серий; при каждом добавлении создаётся новый торрент.
Чтобы начать докачку новой серии, пользователям необходимо сделать следующее:
1. Остановить скачивание;
2. Удалить старый торрент у себя из клиента (старые серии удалять не надо);
3. Скачать новый торрент и запустить его у себя в клиенте вместо старого, при этом указать клиенту путь в старую папку куда и должно происходить скачивание новых серий. Ваш клиент при этом должен произвести хеширование (проверку) старой папки и будет докачивать только те серии, которых у вас ещё нет. Старые серии при этом не удаляются, а продолжают раздаваться! Eсли вы уже удалили старые серии, то предотвратить повторную закачку старых серий можно, отжав галочку в соответствующих местах при запуске нового торрента.
Скриншоты:
Яндекс.Метрика
Рейтинг@Mail.ru