Oleg Lav | AdwCleaner - удаление рекламного ПО (2015) PCRec

 

Создавать темы 18-Мар-2015 15:14

-Oleg Lav | AdwCleaner - удаление рекламного ПО (2015) PCRec- Автор (режиссер): Oleg Lav
Жанр: Обучающее видео
Продолжительность: 00:05:33
Качество видео: PCRec
Видеокодек: AVC
Битрейт видео: ~898 Kbps
Размер кадра: 1280x720
Аудиокодек: AAC 2.0
Битрейт аудио: 192 Kbps, 2ch, 44.1 KHz
Описание:
Не секрет что наша основная антивирусная защита не может предотвратить проникновение рекламного программного обеспечения, различных опасных нежелательных компонентов, тормозящих интернет-серфинг и мешающих нормальной работе компьютера. А если сюда прибавить надоедливые панели инструментов, нежелательные расширения в браузере, опасные программы, меняющие домашнюю страницу веб-обозревателей, становиться ясно — использование портативной утилиты AdwCleaner просто необходимо.

MI

General
Format                      : MPEG-4
Format profile              : Base Media / Version 2
Codec ID                    : mp42
File size                   : 43.4 MiB
Duration                    : 5mn 32s
Overall bit rate mode       : Variable
Overall bit rate            : 1 093 Kbps
Encoded date                : UTC 2015-03-16 19:50:28
Tagged date                 : UTC 2015-03-16 19:50:28
gsst                        : 0
gstd                        : 332903
gssd                        : B0AFCE2CAHH1426681225019282
gshh                        : r6---sn-4g57knzy.googlevideo.com
Video
ID                          : 1
Format                      : AVC
Format/Info                 : Advanced Video Codec
Format profile              : [url=mailto:[email protected]][email protected][/url]
Format settings, CABAC      : Yes
Format settings, ReFrames   : 1 frame
Codec ID                    : avc1
Codec ID/Info               : Advanced Video Coding
Duration                    : 5mn 32s
Bit rate                    : 898 Kbps
Maximum bit rate            : 8 687 Kbps
Width                       : 1 280 pixels
Height                      : 720 pixels
Display aspect ratio        : 16:9
Frame rate mode             : Constant
Frame rate                  : 30.000 fps
Color space                 : YUV
Chroma subsampling          : 4:2:0
Bit depth                   : 8 bits
Scan type                   : Progressive
Bits/(Pixel*Frame)          : 0.032
Stream size                 : 35.6 MiB (82%)
Encoded date                : UTC 1970-01-01 00:00:00
Tagged date                 : UTC 2015-03-16 19:50:30
Audio
ID                          : 2
Format                      : AAC
Format/Info                 : Advanced Audio Codec
Format profile              : LC
Codec ID                    : 40
Duration                    : 5mn 32s
Bit rate mode               : Variable
Bit rate                    : 192 Kbps
Maximum bit rate            : 202 Kbps
Channel(s)                  : 2 channels
Channel positions           : Front: L R
Sampling rate               : 44.1 KHz
Compression mode            : Lossy
Stream size                 : 7.62 MiB (18%)
Title                       : IsoMedia File Produced by Google, 5-11-2011
Language                    : English
Encoded date                : UTC 2015-03-16 19:50:29
Tagged date                 : UTC 2015-03-16 19:50:30
Скриншоты:

Время раздачи: До 5-ти скачавших – далее по возможности.
Яндекс.Метрика
Рейтинг@Mail.ru