Оборотень / Wer (2013,ужасы, триллер, детектив) BDRip | [Лицензия]

 

Создавать темы 17-Мар-2015 21:41

-Оборотень / Wer -Информация о фильме
Название: Оборотень
Оригинальное название: Wer
Год выхода: 2013
Жанр: ужасы, триллер, детектив
Режиссер: Уильям Брент Белл
В ролях: А.Дж. Кук, Брайан Скотт О’Коннор, Себастьян Роше, Саймон Куотерман, Вик Сахай, Окли Пендергаст, Стефани Николь Лемелин, Брайан Джонсон, Камелиа Максим, Коллин Джей Блэр
О фильме:
Главная героиня фильма — молодая девушка Кейт Мур, которая совсем недавно окончила юридический вуз. Однажды ее подзащитным становиться мужчина по имени Талан Гвинек, которого обвиняют в ряде жестоких убийств. Это дело совершенно не похоже на другие, ведь клиент Кейт болен очень редким заболеванием гипертрихозом, которое вызывает повышенную волосатость, и делает подзащитного похожим на зверя. Ко всему прочему болезнь вызывает вялость в поведение и боль в суставах, что дает Кет вескую причину утверждать, что ее подзащитный не виновен, и она делает все возможное, чтобы это доказать.
Однако у детектива Клауса Пистора, занимающегося расследованием этого ужасного дела, совершенно иное мнение по этому поводу, и он ни на минуту не сомневается в виновности Талана. Но вскоре происходит инцидент, который не только заставляет Кейт кардинальным образом изменить свое мнение, но и дает понять всем окружающим, что Талан не просто человек…

Страна: США
Студия: FilmDistrict, Incentive Filmed Entertainment, Prototype
Продолжительность: 01:33:18
Перевод: Дублированный [Лицензия]
Файл
Кодек: XviD
Качество: BDRip
Видео: 656x352, 986 kbps, 23,976 fps, 0,178 Bits/(Pixel*Frame)
Звук: MP3, 48 kHz, 2 ch, 128 kbps
Субтитры: Нет

MI

General
Complete name : I:Wer.2013.BDRip.DUD._by_Bathory.avi
Format : AVI
Format/Info : Audio Video Interleave
File size : 749 MiB
Duration : 1h 33mn
Overall bit rate : 1 123 Kbps
Writing application : VirtualDubMod 1.5.10.3 | www.virtualdub-fr.org || (build 2550/release)
Writing library : VirtualDubMod build 2550/release
Video
ID : 0
Format : MPEG-4 Visual
Format profile : Advanced [email protected]
Format settings, BVOP : 1
Format settings, QPel : No
Format settings, GMC : No warppoints
Format settings, Matrix : Custom
Codec ID : XVID
Codec ID/Hint : XviD
Duration : 1h 33mn
Bit rate : 986 Kbps
Width : 656 pixels
Height : 352 pixels
Display aspect ratio : 1.85:1
Frame rate : 23.976 fps
Color space : YUV
Chroma subsampling : 4:2:0
Bit depth : 8 bits
Scan type : Progressive
Compression mode : Lossy
Bits/(Pixel*Frame) : 0.178
Stream size : 658 MiB (88%)
Writing library : XviD 73
Audio
ID : 1
Format : MPEG Audio
Format version : Version 1
Format profile : Layer 3
Mode : Joint stereo
Mode extension : MS Stereo
Codec ID : 55
Codec ID/Hint : MP3
Duration : 1h 33mn
Bit rate mode : Constant
Bit rate : 128 Kbps
Channel(s) : 2 channels
Sampling rate : 48.0 KHz
Compression mode : Lossy
Stream size : 85.4 MiB (11%)
Alignment : Aligned on interleaves
Interleave, duration : 42 ms (1.00 video frame)
Interleave, preload duration : 504 ms
Writing library : LAME3.99r
Encoding settings : -m j -V 4 -q 2 -lowpass 17 -b 128

Скриншоты

Яндекс.Метрика
Рейтинг@Mail.ru