Налёт / Braquo / Сезон: 2 / Серии: 1-8 из 8 (Оливье Маршаль, Фредерик Шёндёрфер, Филипп Аим) [2011, триллер, криминал, BDRip 720p]

 

Создавать темы 16-Мар-2015 20:53

-Налёт / BraquoНалёт / Braquo
Год выпуска: 2011
Страна: Франция
Жанр: Триллер, криминал
Продолжительность: ~ 00:50:00
Перевод: Профессиональный многоголосый закадровый (BaibaKo)
Перевод 2: Профессиональный многоголосый закадровый (Amedia)
Русские субтитры: нет
Режиссёр: Оливье Маршаль, Фредерик Шёндёрфер, Филипп Аим
В ролях: Жан-Юг Англад, Кароль Роше, Николя Дювошель, Жозеф Малерба, Жоффруа Тьебо, Ален Фиглаж, Самюэль Ле Бьян, Жоэль Лефрансуа, Паскаль Элсо, Софи Брусталь и другие
Описание: Главные герои сериала — четверо сотрудников судебной полиции Парижского региона. Их жизнь резко меняется, когда их друг и коллега Макс, несправедливо обвиненный, совершает самоубийство. С этого момента четверка начинает вести собственное расследование, чтобы восстановить справедливость и честное имя друга — даже если при этом им приходится рисковать и обходить закон…
/Сэмпл
Качество: BDRip 720p
Контейнер: MKV
Видео: MPEG-4 AVC, 1280x720, 16:9, ~ 5460 Kbps, 25 fps, 0.237 bit/pixel
Аудио: Русский, AAC, 48.0 KHz, 2 channels, 384 Kbps (BaibaKo)
Аудио 2: Русский, AC3, 48.0 KHz, 2 channels, 192 Kbps (Amedia)
Аудио 3: Французский, DTS, 48.0 KHz, 2 channels, 768 Kbps (Original)
Субтитры: отсутствуют

MediaInfo

General
Unique ID : 273242412545928139528144305567929697254 (0xCD90930E7DF7EEC21D1E4DB3EAAF83E6)
Complete name : /Braquo.s02.HD720p.BluRay.Rus.Fre.BaibaKo.Amedia/Braquo.s02e01.HD720p.BluRay.Rus.Fre.BaibaKo.Amedia.mkv
Format : Matroska
Format version : Version 4 / Version 2
File size : 2.32 GiB
Duration : 50mn 12s
Overall bit rate : 6 611 Kbps
Movie name : Налёт 2х01
Encoded date : UTC 2014-07-24 00:16:58
Writing application : mkvmerge v6.9.1 ('Blue Panther') 64bit built on Apr 21 2014 16:21:33
Writing library : libebml v1.3.0 + libmatroska v1.4.1
Video
ID : 1
Format : AVC
Format/Info : Advanced Video Codec
Format profile : [email protected]
Format settings, CABAC : Yes
Format settings, ReFrames : 5 frames
Codec ID : V_MPEG4/ISO/AVC
Duration : 50mn 12s
Nominal bit rate : 5 460 Kbps
Width : 1 280 pixels
Height : 720 pixels
Display aspect ratio : 16:9
Frame rate mode : Constant
Frame rate : 25.000 fps
Color space : YUV
Chroma subsampling : 4:2:0
Bit depth : 8 bits
Scan type : Progressive
Bits/(Pixel*Frame) : 0.237
Title : Braquo S02E01 720p
Writing library : x264 core 120 r2120 0c7dab9
Encoding settings : cabac=1 / ref=5 / deblock=1:0:0 / analyse=0x3:0x113 / me=umh / subme=7 / psy=1 / psy_rd=1.00:0.00 / mixed_ref=1 / me_range=16 / chroma_me=1 / trellis=1 / 8x8dct=1 / cqm=0 / deadzone=21,11 / fast_pskip=0 / chroma_qp_offset=-2 / threads=18 / sliced_threads=0 / nr=0 / decimate=1 / interlaced=0 / bluray_compat=0 / constrained_intra=0 / bframes=3 / b_pyramid=2 / b_adapt=1 / b_bias=0 / direct=1 / weightb=1 / open_gop=0 / weightp=2 / keyint=250 / keyint_min=25 / scenecut=40 / intra_refresh=0 / rc_lookahead=40 / rc=2pass / mbtree=1 / bitrate=5460 / ratetol=1.0 / qcomp=0.60 / qpmin=0 / qpmax=69 / qpstep=4 / cplxblur=20.0 / qblur=0.5 / ip_ratio=1.40 / aq=1:1.00
Language : French
Default : Yes
Forced : No
Audio #1
ID : 2
Format : AAC
Format/Info : Advanced Audio Codec
Format profile : LC
Codec ID : A_AAC
Duration : 50mn 12s
Channel(s) : 2 channels
Channel positions : Front: L R
Sampling rate : 48.0 KHz
Compression mode : Lossy
Title : Rus (BaibaKo)
Language : Russian
Default : Yes
Forced : No
Audio #2
ID : 3
Format : AC-3
Format/Info : Audio Coding 3
Mode extension : CM (complete main)
Format settings, Endianness : Big
Codec ID : A_AC3
Duration : 50mn 12s
Bit rate mode : Constant
Bit rate : 192 Kbps
Channel(s) : 2 channels
Channel positions : Front: L R
Sampling rate : 48.0 KHz
Bit depth : 16 bits
Compression mode : Lossy
Stream size : 69.0 MiB (3%)
Title : Rus (Amedia)
Language : Russian
Default : No
Forced : No
Audio #3
ID : 4
Format : DTS
Format/Info : Digital Theater Systems
Mode : 16
Format settings, Endianness : Big
Codec ID : A_DTS
Duration : 50mn 12s
Bit rate mode : Constant
Bit rate : 768 Kbps
Channel(s) : 2 channels
Channel positions : Front: L R
Sampling rate : 48.0 KHz
Bit depth : 24 bits
Compression mode : Lossy
Stream size : 276 MiB (12%)
Title : Fre (Original)
Language : French
Default : No
Forced : No

Скриншоты:

Список серий

Baibako:
Сезон 2, Серии 1-8
01: Les damnes / Тупицы
02: Seuls contre tous / Один против всех
03: Tous pour un / Все за одного
04: Chevres et chacals / Козы и шакалы
05: Infiltre / Проникнувший
06: Mere et patrie / Мать и Родина
07: Au nom du pire / Во имя худшего
08: 4 moins 1 / 4 минус 1
Amedia:
Сезон 2, Серии 1-8
01: Les damnes / Проклятые
02: Seuls contre tous / Один против всех
03: Tous pour un / Все за одного
04: Chevres et chacals / Волки и овцы
05: Infiltre / Свой среди чужих
06: Mere et patrie / Мать и Родина
07: Au nom du pire / Во имя худшего
08: 4 moins 1 / 4 минус 1

Подробнее о релизе

Озвучка: BaibaKo, Amedia.
Перевод (BaibaKo): zymova
Перевод (Amedia): нет данных
Роли озвучивали (BaibaKo): Елена Григорьева, Руслан Иванов, Олекса Мельник и Виталий Ткаченко
Роли озвучивали (Amedia): нет данных
Аудиодорожка (BaibaKo): из релиза BaibaKo
Аудиодорожка (Amedia): из релиза Casstudio
Работа со звуком BaibaKo: Виталий Ткаченко
Работа со звуком Amedia: 13napas
Подготовка релиза: alexmild
Торрент обновлен : Добавлена озвучка студии Amedia.
Яндекс.Метрика
Рейтинг@Mail.ru