Родина (2015) SATRip (сезон 1, серии 1-12 (12) (обновляемая)

 

Создавать темы 16-Мар-2015 19:16

- Родина (2015) SATRip - Производство: Россия
Жанр: драма, детектив
Релиз от: -=DeMoH=-
Режиссер: Павел Лунгин
Актеры: Владимир Машков, Виктория Исакова, Мария Миронова (II), Сергей Маковецкий, Андрей Мерзликин, Мария Шалаева, Тимофей Трибунцев, Валериу Андриуцэ, Алиса Хазанова, Софья Хилькова, Эрик Холявко-Гришин, Владимир Вдовиченков, Юсуп Бахшиев, Аркадий Парсегов, Алексей Нестеренко, Ирина Вербицкая, Алексей Коваль, Грегори-Саид Багов, Андрей Межулис, Рамиля Искандер, Даша Русакова, Сергей Макаров (IV), Алла Малкова, Илья Исаев.
Описание фильма:
В центре сюжета — противостояние майора Алексея Брагина и эксперта-аналитика контртеррористического центра — Анны Зиминой.
В ходе спецоперации на Северном Кавказе уничтожен лагерь по подготовке террористов и захвачен бункер, в котором обнаружен изможденный, прикованный к стене, заросший бородой человек. Это майор, Алексей Брагин. Шесть лет назад попав в засаду и потеряв большую часть товарищей, Брагин попадает в плен. Его признают пропавшим без вести. Уезжая в последнюю командировку, Брагин оставил в Москве семью — жену Елену, трехлетнего сына Ивана и девятилетнюю дочь Катю.
Теперь он возвращается в мирную жизнь, где его уже, к сожалению, перестали ждать. Брагин пытается восстановить отношения с женой и дочерью, сблизиться с сыном, но кроме очевидных сложностей, мы видим и понимаем, что у него есть какая-то тайна, которую он тщательно скрывает даже от самых близких.
Несмотря на ореол героя, после первых же допросов Брагина, Анна Зимина начинает подозревать, что тот завербован террористами. Основываясь на собственном опыте и интуиции, Анна старается разгадать тайну Брагина.-Дата российской премьеры: 16 марта 2015
Продолжительность: ~01:10:00 серия
Качество видео: SATRip
Видеокодек: Xvid
Битрейт видео: ~1870 Кбит/сек
Размер кадра: 720 x 400
Аудиокодек: AC-3, 2ch.
Битрейт аудио: 192 Кбит/сек

Mediainfo:

[scroll]Формат                                   : AVI
Формат/Информация                        : Audio Video Interleave
Размер файла                             : 1007 Мбайт
Продолжительность                        : 1 ч. 7 м.
Общий поток                              : 2073 Кбит/сек
Программа кодирования                    : VirtualDubMod 1.5.10.3 | [url=http://www.virtualdub-fr.org]www.virtualdub-fr.org[/url] || (build 2550/release)
Библиотека кодирования                   : VirtualDub build 35491/release
Видео
Идентификатор                            : 0
Формат                                   : MPEG-4 Visual
Профиль формата                          : Advanced [email protected]
Параметр BVOP формата                    : 2
Параметр QPel формата                    : Нет
Параметр GMC формата                     : Без точки перехода
Параметр матрицы формата                 : Default (H.263)
Идентификатор кодека                     : XVID
Идентификатор кодека/Подсказка           : XviD
Продолжительность                        : 1 ч. 7 м.
Битрейт                                  : 1871 Кбит/сек
Ширина                                   : 720 пикселей
Высота                                   : 400 пикселей
Соотношение сторон                       : 16:9
Частота кадров                           : 25,000 кадров/сек
Цветовое пространство                    : YUV
Субдискретизация насыщенности            : 4:2:0
Битовая глубина                          : 8 бит
Тип развёртки                            : Прогрессивная
Метод сжатия                             : С потерями
Бит/(Пиксели*Кадры)                      : 0.260
Размер потока                            : 909 Мбайт (90%)
Библиотека кодирования                   : XviD 1.2.1 (UTC 2008-12-04)
Аудио
Идентификатор                            : 1
Формат                                   : AC-3
Формат/Информация                        : Audio Coding 3
Расширение режима                        : CM (complete main)
Параметр Endianness формата              : Big
Идентификатор кодека                     : 2000
Продолжительность                        : 1 ч. 7 м.
Вид битрейта                             : Постоянный
Битрейт                                  : 192 Кбит/сек
Каналы                                   : 2 канала
Расположение каналов                     : Front: L R
Частота                                  : 48,0 КГц
Битовая глубина                          : 16 бит
Метод сжатия                             : С потерями
Размер потока                            : 93,2 Мбайт (9%)
Выравнивание                             : Разделение по промежуткам
Продолжительность промежутка             : 40  мс. (1,00 видеокадр)
Время предзагрузки промежутка            : 500  мс.

Внимание! Раздача ведётся путём добавления новых серий

Внимание! Раздача ведётся путём добавления новых серий; при каждом добавлении создаётся новый торрент.
Чтобы начать докачку новой серии, пользователям необходимо сделать следующее:
1. Остановить скачивание;
2. Удалить старый торрент у себя из клиента (старые серии удалять не надо);
3. Скачать новый торрент и запустить его у себя в клиенте вместо старого, при этом указать клиенту путь в старую папку куда и должно происходить скачивание новых серий. Ваш клиент при этом должен произвести хеширование (проверку) старой папки и будет докачивать только те серии, которых у вас ещё нет. Старые серии при этом не удаляются, а продолжают раздаваться! Eсли вы уже удалили старые серии, то предотвратить повторную закачку старых серий можно, отжав галочку в соответствующих местах при запуске нового торрента.
Скриншоты:

-Время раздачи: 24/7. До первых 5 скачавших.

Информация от vladios13


Торрент обновлен! Добавлена заключительная 12 серия. Просьба всем скачавшим перекачать торрент.

Создавать темы 26-Мар-2015 18:53 (спустя 9 дней)

хмм.. оперативненько! )

Создавать темы 26-Мар-2015 19:28 (спустя 35 минут)

STANGER, Стараемся все делать оперативно! С наилучшими пожеланиями для Вас уважаемые пользователи.
Яндекс.Метрика
Рейтинг@Mail.ru