Освободитель / Libertador (2013 ,Исторический) DVD-9 | L2

 

Создавать темы 16-Мар-2015 10:53

-Освободитель / Libertador-Информация о фильме
Название: Освободитель
Оригинальное название: Libertador
Год выхода: 2013
Жанр: Исторический
Режиссер: Альберто Арвело
В ролях: Эдгар Рамирес, Эрих Вильдпрет, Мария Вальверде, Хуана Акоста, Иманоль Ариас, Леандро Арвело, Марта Бенвенути, Хон Бермудес, Дасио Кабаллеро, Алехандро Ферт
О фильме: В основе всех событий мы видим реальную историю героя Венесуэлы. Этим героем является Симон Боливар. Симон - знаменитый генерал Венесуэлы, который освободил ее от испанского господства, кроме этого он вел освободительную победную войну за Новую Гранаду, провинцию Кито, а уже в 1819-1830 годах занимал пост президента Великой Колумбии, которая была создана на территории всех этих стран.

Страна: Венесуэла, Испания
Студия: Producciones Insurgentes, San Mateo Films, WMG Film
Продолжительность: 01:58:27
Перевод: Любительский двухголосый (Сладкая парочка)
Файл
Кодек: MPEG-2
Качество: DVD-9
Видео: MPEG2, NTSC 16:9 (720x480) VBR, 23,976 кадра/сек
Звук: Русский / Испанский DD 5.1 (384 Kbps)

Меню

DVDInfo

Size: 6.50 Gb ( 6 820 832 KBytes ) - DVD-9
Enabled regions: 1, 2, 3, 4, 5, 6, 7, 8
VTS_01 :
Play Length: 01:58:27
Video: NTSC 16:9 (720x480) VBR, Auto Pan&Scan
Audio:
Russian (Dolby AC3, 6 ch)
Espanol (Dolby AC3, 6 ch)
Menu Video:
NTSC 4:3 (704x480) VBR
Menu English Language Unit :
Root Menu

MediaInfo

Общее
Полное имя : D:1АААОСВОБОДИТЕЛЬVIDEO_TSVTS_01_1.VOB
Формат : MPEG-PS
Размер файла : 1001 Мбайт
Продолжительность : 17 м.
Режим общего битрейта : Переменный
Общий поток : 7863 Кбит/сек
Видео
Идентификатор : 224 (0xE0)
Формат : MPEG Video
Версия формата : Version 2
Профиль формата : [email protected]
Параметр BVOP формата : Да
Параметр матрицы формата : По умолчанию
Параметр GOP формата : M=3, N=12
Продолжительность : 17 м.
Вид битрейта : Переменный
Битрейт : 6938 Кбит/сек
Максимальный битрейт : 8824 Кбит/сек
Ширина : 720 пикселей
Высота : 480 пикселей
Соотношение сторон : 16:9
Частота кадров : 23,976 кадра/сек
Стандарт вещания : NTSC
Цветовое пространство : YUV
Субдискретизация насыщенности : 4:2:0
Битовая глубина : 8 бит
Тип развёртки : Прогрессивная
Порядок развёртки : 2:3 Pulldown
Метод сжатия : С потерями
Бит/(Пиксели*Кадры) : 0.837
TimeCode_FirstFrame : 00:00:00;00
TimeCode_Source : Group of pictures header
Размер потока : 883 Мбайт (88%)
Аудио #1
Идентификатор : 189 (0xBD)-128 (0x80)
Формат : AC-3
Формат/Информация : Audio Coding 3
Расширение режима : CM (complete main)
Параметр Endianness формата : Big
Режим смешивания : DVD-Video
Продолжительность : 17 м.
Вид битрейта : Постоянный
Битрейт : 384 Кбит/сек
Каналы : 6 каналов
Расположение каналов : Front: L C R, Side: L R, LFE
Частота : 48,0 КГц
Битовая глубина : 16 бит
Метод сжатия : С потерями
Размер потока : 48,9 Мбайт (5%)
Аудио #2
Идентификатор : 189 (0xBD)-129 (0x81)
Формат : AC-3
Формат/Информация : Audio Coding 3
Расширение режима : CM (complete main)
Параметр Endianness формата : Big
Режим смешивания : DVD-Video
Продолжительность : 17 м.
Вид битрейта : Постоянный
Битрейт : 384 Кбит/сек
Каналы : 6 каналов
Расположение каналов : Front: L C R, Side: L R, LFE
Частота : 48,0 КГц
Битовая глубина : 16 бит
Метод сжатия : С потерями
Размер потока : 48,9 Мбайт (5%)
Меню

Скриншоты:

Яндекс.Метрика
Рейтинг@Mail.ru