[m4v] Звездные войны: Войны клонов / Star Wars:The clone Wars.Season 1 (2008) BDRip

 

Создавать темы 16-Мар-2015 02:09

-[m4v] Звездные войны: Войны клонов / Star Wars:The clone Wars.Season 1 (2008) BDRip- Платформа или формат: [m4v]
Производство: США
Жанр: Анимация, Фантастика, Боевик
Режиссер: Дэйв Филони, Стюарт Ли, Кайл Данливи
Актеры: Том Кэйн, Ди Брэдли Бейкер, Мэтт Лантер, Джеймс Арнольд Тейлор, Эшли Дрейн, Мэттью Вуд, Кори Бертон, Катрин Табер, Терренс «Т.К.» Карсон, Йен Эберкромби
Описание фильма:
Великая Армия Республики, ведомая Йодой, Мейсом Винду, Оби-Ваном Кеноби и другими рыцарями-джедаями, сражается против Новой Армии Дроидов сепаратистов.

Продолжительность: 22x20
Качество видео: BDRip
Перевод: Дублированный
Видеокодек: MPEG-4 AVC/H.264
Битрейт видео: ~5166 Kbps
Размер кадра: 1280x544
Аудиокодек: AAC
Битрейт аудио: 164 kb/sec
Аудио #1: AAC, 2 канала, 164 Кбит/сек - (Дублированный)
Аудио #2: AAC, 2 канала, 164 Кбит/сек - (оригинал)
Аудио# 3:AAC 5.1 канала,640 Кбит/сек - (оригинал)

Mediainfo:

General
Complete name               : C:\Users\Alex000\Documents\Star Wars_ The Clone Wars\Season 1\14 Defenders of Peace (HD).m4v
Format                      : MPEG-4
Codec ID                    : M4V
File size                   : 835 MiB
Duration                    : 22mn 36s
Overall bit rate mode       : Variable
Overall bit rate            : 5 166 Kbps
Collection                  : Star Wars: The Clone Wars
Season                      : 1
Album                       : Звездные войны: Войны клонов, Сезон 1
Album/Sorted by             : Star Wars: The Clone Wars, Season 1
Album/Performer             : Star Wars: The Clone Wars
Part                        : 14
Part/Position               : 1
Part/Total                  : 1
Track name                  : Defenders of Peace
Track name/Position         : 14
Performer                   : Star Wars: The Clone Wars
Genre                       : Sci-Fi & Fantasy
ContentType                 : TV Show
Description                 : While the Jedi combat a new Separatist weapon, the pacifist Lurmen must decide whether they will lay down to the oppressive Separatists or fight with Anakin, Ahsoka and Jedi General Aayla Secura.
Recorded date               : UTC 2009-01-24 08:00:00
Encoded date                : UTC 2013-08-14 09:01:52
Tagged date                 : UTC 2013-08-14 10:05:46
Copyright                   : TM & © 2008 Lucasfilm Ltd. All Rights Reserved. Used Under Authorization.
Cover                       : Yes
Rating                      : None
TVNetworkName               : Cartoon Network
Part_ID                     : 14
Title/Sort                  : Defenders of Peace / Star Wars: The Clone Wars
LongDescription             : While the Jedi combat a new Separatist weapon, the pacifist Lurmen must decide whether they will lay down to the oppressive Separatists or fight with Anakin, Ahsoka and Jedi General Aayla Secura.
HDVideo                     : Yes
AppleStoreCatalogID         : 303150484
Vendor                      : Lucasfilm:vendor_id:LUCASFILM_THECLONEWARS_114
ContentRating               : us-tv|TV-PG|400|
Video
ID                          : 1
Format                      : AVC
Format/Info                 : Advanced Video Codec
Format profile              : [url=mailto:[email protected]][email protected][/url]
Format settings, CABAC      : No
Format settings, ReFrames   : 3 frames
Codec ID                    : avc1
Codec ID/Info               : Advanced Video Coding
Duration                    : 22mn 35s
Bit rate                    : 4 200 Kbps
Width                       : 1 280 pixels
Height                      : 544 pixels
Display aspect ratio        : 2.35:1
Frame rate mode             : Variable
Frame rate                  : 23.976 fps
Minimum frame rate          : 23.974 fps
Maximum frame rate          : 90 000.000 fps
Color space                 : YUV
Chroma subsampling          : 4:2:0
Bit depth                   : 8 bits
Scan type                   : Progressive
Bits/(Pixel*Frame)          : 0.252
Stream size                 : 677 MiB (81%)
Title                       : Main Program
Writing library             : x264 core 130 r2273 b3065e6
Encoding settings           : cabac=0 / ref=3 / deblock=1:-3:-2 / analyse=0x3:0x113 / me=umh / subme=9 / psy=1 / psy_rd=0.70:0.15 / mixed_ref=1 / me_range=32 / chroma_me=1 / trellis=0 / 8x8dct=1 / cqm=0 / deadzone=21,11 / fast_pskip=0 / chroma_qp_offset=-2 / threads=6 / lookahead_threads=1 / sliced_threads=0 / nr=0 / decimate=1 / interlaced=0 / bluray_compat=0 / constrained_intra=0 / bframes=3 / b_pyramid=0 / b_adapt=2 / b_bias=0 / direct=1 / weightb=0 / open_gop=0 / weightp=0 / keyint=240 / keyint_min=24 / scenecut=40 / intra_refresh=0 / rc_lookahead=40 / rc=2pass / mbtree=1 / bitrate=4200 / ratetol=1.0 / qcomp=0.70 / qpmin=0 / qpmax=51 / qpstep=4 / cplxblur=20.0 / qblur=0.5 / vbv_maxrate=9500 / vbv_bufsize=9500 / nal_hrd=none / ip_ratio=1.40 / aq=1:0.60
Language                    : English
Encoded date                : UTC 2013-08-14 09:01:52
Tagged date                 : UTC 2013-08-14 09:02:20
Color primaries             : BT.709
Transfer characteristics    : BT.709
Matrix coefficients         : BT.709
Color range                 : Limited
Audio #1
ID                          : 2
Format                      : AAC
Format/Info                 : Advanced Audio Codec
Format profile              : LC
Codec ID                    : 40
Duration                    : 22mn 34s
Bit rate mode               : Variable
Bit rate                    : 164 Kbps
Maximum bit rate            : 249 Kbps
Channel(s)                  : 2 channels
Channel positions           : Front: L R
Sampling rate               : 48.0 KHz
Compression mode            : Lossy
Stream size                 : 26.5 MiB (3%)
Title                       : Russian Stereo
Language                    : Russian
Encoded date                : UTC 2013-08-14 09:01:52
Tagged date                 : UTC 2013-08-14 09:01:53
Audio #2
ID                          : 3
Format                      : AAC
Format/Info                 : Advanced Audio Codec
Format profile              : LC
Codec ID                    : 40
Duration                    : 22mn 36s
Bit rate mode               : Variable
Bit rate                    : 164 Kbps
Maximum bit rate            : 256 Kbps
Channel(s)                  : 2 channels
Channel positions           : Front: L R
Sampling rate               : 48.0 KHz
Compression mode            : Lossy
Stream size                 : 26.6 MiB (3%)
Title                       : English Stereo
Language                    : English
Encoded date                : UTC 2013-08-14 09:01:52
Tagged date                 : UTC 2013-08-14 09:02:22
Audio #3
ID                          : 4
Format                      : AC-3
Format/Info                 : Audio Coding 3
Mode extension              : CM (complete main)
Format settings, Endianness : Big
Codec ID                    : ac-3
Duration                    : 22mn 36s
Bit rate mode               : Constant
Bit rate                    : 640 Kbps
Channel(s)                  : 6 channels
Channel positions           : Front: L C R, Side: L R, LFE
Sampling rate               : 48.0 KHz
Bit depth                   : 16 bits
Compression mode            : Lossy
Stream size                 : 103 MiB (12%)
Title                       : English DD 5.1
Language                    : English
Encoded date                : UTC 2013-08-14 09:01:52
Tagged date                 : UTC 2013-08-14 09:02:24
Text
ID                          : 5
Format                      : Timed Text
Muxing mode                 : sbtl
Codec ID                    : tx3g
Duration                    : 21mn 48s
Bit rate mode               : Variable
Bit rate                    : 66 bps
Stream size                 : 10.6 KiB (0%)
Title                       : English SDH Subtitle
Language                    : English
Encoded date                : UTC 2013-08-14 09:01:52
Tagged date                 : UTC 2013-08-14 09:02:24
Скриншоты:
Яндекс.Метрика
Рейтинг@Mail.ru