Считанные часы / Hours (Эрик Хайссерер)[ 2013, триллер, BDRip 1080p] от CINEMANIA | L2

 

Создавать темы 24-Ноя-2013 15:41

Информация о фильме
Название: Считанные часы
Оригинальное название: Hours
Год выхода: 2013
Жанр: триллер
Режиссер: Эрик Хайссерер
В ролях: Пол Уокер, Дженезис Родригез, Ник Гомес,Мэтт Кук, Тони Бентли,Джудд Лорманд, Мишель Торрес, Керри Кехилл, Ренелл Гиббс
О фильме:
Новый Орлеан. Август 2005-го. Смертоносный ураган «Катрина» сметает все на своем пути. Отец изо всех сил пытается спасти свою дочь. Он понимает, что справиться со стихией, остановить беспощадный ураган не в его силах. На спасение дочери остаются считанные часы…

Выпущено: США
Продолжительность: 01:36:56
Озвучивание: Любительское (двухголосое) [DeadSno & den904]
перевод на русский язык [kon2011]
Файл
Формат: MKV
Качество: BDRip 1080p [PHD]
Видео: 10212 kb/s, 1920x804
Аудио: Russian: AC3, 448 kb/s (6 ch) / English: DTS, 1510 kb/s (6 ch)
Субтитры: English
Дополнительно: Сохранены оригинальные чаптеры как на Blu-Ray
Размер: 8.25 GB
Скачать: Сэмпл
Релиз группы:

NFO

General
Hours.2013.BDRip.1080p.CINEMANIA.mkv
Format : Matroska
Format version : Version 4 / Version 2
File size : 8.25 GiB
Duration : 1h 36mn
Overall bit rate : 12.2 Mbps
Movie name : Release Group CINEMANIA
Encoded date : UTC 2013-11-23 18:10:50
Writing application : mkvmerge v6.5.0 ('Isn't she lovely') built on Oct 20 2013 12:50:05
Writing library : libebml v1.3.0 + libmatroska v1.4.1
Video
ID : 1
Format : AVC
Format/Info : Advanced Video Codec
Format profile : [email protected]
Format settings, CABAC : Yes
Format settings, ReFrames : 5 frames
Codec ID : V_MPEG4/ISO/AVC
Duration : 1h 36mn
Bit rate : 10.2 Mbps
Width : 1 920 pixels
Height : 804 pixels
Display aspect ratio : 2.40:1
Frame rate mode : Constant
Frame rate : 23.976 fps
Color space : YUV
Chroma subsampling : 4:2:0
Bit depth : 8 bits
Scan type : Progressive
Bits/(Pixel*Frame) : 0.276
Stream size : 6.76 GiB (82%)
Title : Release Group CINEMANIA
Writing library : x264 core 133 r2334+704+50 a7549b7 tMod [[email protected]:2:0 X86_64]
Encoding settings : cabac=1 / ref=5 / deblock=1:-3:-3 / analyse=0x3:0x113 / me=umh / subme=7 / psy=1 / fade_compensate=0.00 / psy_rd=1.00:0.00 / mixed_ref=1 / me_range=16 / chroma_me=1 / trellis=1 / 8x8dct=1 / cqm=0 / deadzone=21,11 / fast_pskip=1 / chroma_qp_offset=-2 / threads=16 / lookahead_threads=2 / sliced_threads=0 / nr=0 / decimate=1 / interlaced=0 / bluray_compat=0 / constrained_intra=0 / fgo=0 / bframes=3 / b_pyramid=2 / b_adapt=1 / b_bias=0 / direct=3 / weightb=1 / open_gop=0 / weightp=2 / keyint=240 / keyint_min=23 / scenecut=40 / intra_refresh=0 / rc_lookahead=50 / rc=2pass / mbtree=1 / bitrate=10224 / ratetol=1.0 / qcomp=0.60 / qpmin=0 / qpmax=69 / qpstep=4 / cplxblur=20.0 / qblur=0.5 / ip_ratio=1.40 / aq=4:1.00 / aq-sensitivity=10.00 / aq-factor=1.00:1.00:1.00 / aq2=0 / aq3=0
Language : English
Default : Yes
Forced : No
Audio #1
ID : 2
Format : AC-3
Format/Info : Audio Coding 3
Mode extension : CM (complete main)
Format settings, Endianness : Big
Codec ID : A_AC3
Duration : 1h 36mn
Bit rate mode : Constant
Bit rate : 448 Kbps
Channel(s) : 6 channels
Channel positions : Front: L C R, Side: L R, LFE
Sampling rate : 48.0 KHz
Bit depth : 16 bits
Compression mode : Lossy
Stream size : 311 MiB (4%)
Title : den904 and DeadSno
Language : Russian
Default : Yes
Forced : Yes
Audio #2
ID : 3
Format : DTS
Format/Info : Digital Theater Systems
Mode : 16
Format settings, Endianness : Big
Codec ID : A_DTS
Duration : 1h 36mn
Bit rate mode : Constant
Bit rate : 1 509 Kbps
Channel(s) : 6 channels
Channel positions : Front: L C R, Side: L R, LFE
Sampling rate : 48.0 KHz
Bit depth : 24 bits
Compression mode : Lossy
Stream size : 1.02 GiB (12%)
Language : English
Default : No
Forced : No
Text
ID : 4
Format : UTF-8
Codec ID : S_TEXT/UTF8
Codec ID/Info : UTF-8 Plain Text
Language : English
Default : No
Forced : No
Menu
00:00:00.000 : en:00:00:00.000
00:07:04.591 : en:00:07:04.591
00:15:39.230 : en:00:15:39.230
00:23:37.166 : en:00:23:37.166
00:32:11.429 : en:00:32:11.429
00:40:26.424 : en:00:40:26.424
00:49:04.525 : en:00:49:04.525
00:56:11.368 : en:00:56:11.368
01:04:57.268 : en:01:04:57.268
01:14:31.926 : en:01:14:31.926
01:23:40.432 : en:01:23:40.432
01:32:41.139 : en:01:32:41.139

Скриншоты

Яндекс.Метрика
Рейтинг@Mail.ru