Жандарм на отдыхе / Le gendarme en balade (Жан Жиро)[1970, комедия, BDRip 720p] | P, A

 

Создавать темы 24-Ноя-2013 15:33

Информация о фильме
Название: Жандарм на отдыхе
Оригинальное название: Le gendarme en balade
Год выхода: 1970
Жанр: комедия
Режиссер: Жан Жиро
В ролях: Луи де Фюнес, Мишель Галабрю, Жан Лефевр, Ги Гроссо, Мишель Модо, Николь Вервиль, Франс Румилли, Ив Венсан, Кристиан Марен, Клоди Жансак
Описание: Всему приходит конец. Начальство сочло наших героев слишком старыми и отправило их на заслуженный отдых. Это трагический момент в жизни такого мужественного офицера как сержант Крюшо.
Запершись в роскошном замке своей жены, он предается унынию. Приезд бывшего начальника Жербера выводит его из спячки. Они собирают своих подчиненных, надевают любимую жандармскую форму и отправляются навстречу новым подвигам.

Страна: Италия, Франция
Продолжительность: 01:40:21
Перевод #01: Профессиональный (Многоголосый, Закадровый) (Рен-ТВ)
Перевод #02: Профессиональный (Многоголосый, Закадровый) (НТВ+)
Перевод #03: Профессиональный (Многоголосый, Закадровый) (Останкино)
Перевод #04: Профессиональный (Многоголосый, Закадровый) (ОРТ)
Перевод #05: Профессиональный (Многоголосый, Закадровый) (Some Wax)
Перевод #06: Авторский (Одноголосый, Закадровый) (Константин Дьяконов)
Перевод #07: Профессиональный (Многоголосый, Закадровый) (Украинский) (NTN)
Перевод #08: Французский (Оригинал)
Файл
Формат: MKV
Качество: BDRip 720p (Источник: Blu-ray Disc)
Видео: 1280x544 (2.35:1), 24.000 fps, 4691 kbps
Аудио #01: AC-3, 2 ch, 192 kbps (Многоголосый Рен-ТВ)
Аудио #02: AC-3, 2 ch, 192 kbps (Многоголосый НТВ+)
Аудио #03: AC-3, 2 ch, 192 kbps (Многоголосый Останкино)
Аудио #04: AC-3, 2 ch, 192 kbps (Многоголосый ОРТ)
Аудио #05: AC-3, 2 ch, 192 kbps (Многоголосый Some Wax)
Аудио #06: AC-3, 2 ch, 192 kbps (Одноголосый Константин Дьяконов)
Аудио #07: AC-3, 2 ch, 192 kbps (Многоголосый Украинский)
Аудио #08: AC-3, 2 ch, 192 kbps (Французский Оригинал)
Субтитры: нет
Скачать: Семпл

MediaInfo

General
Unique ID : 182170563598896407614478898739429186736 (0x890CC63B48B16A8B93686E7E59471CB0)
Complete name : Le.gendarme.en.balade.1970.BDRip.720p.mkv
Format : Matroska
Format version : Version 2
File size : 4.37 GiB
Duration : 1h 40mn
Overall bit rate : 6 230 Kbps
Encoded date : UTC 2013-11-24 12:04:53
Writing application : mkvmerge v5.6.0 ('Kenya Kane') built on May 27 2012 16:44:04
Writing library : libebml v1.2.3 + libmatroska v1.3.0
Video
ID : 1
Format : AVC
Format/Info : Advanced Video Codec
Format profile : [email protected]
Format settings, CABAC : Yes
Format settings, ReFrames : 8 frames
Codec ID : V_MPEG4/ISO/AVC
Duration : 1h 40mn
Bit rate : 4 691 Kbps
Width : 1 280 pixels
Height : 544 pixels
Display aspect ratio : 2.35:1
Frame rate mode : Constant
Frame rate : 24.000 fps
Color space : YUV
Chroma subsampling : 4:2:0
Bit depth : 8 bits
Scan type : Progressive
Bits/(Pixel*Frame) : 0.281
Stream size : 3.20 GiB (73%)
Title : Жандарм на отдыхе / Le gendarme en balade (1970)
Writing library : x264 core 130 r2273 b3065e6
Encoding settings : cabac=1 / ref=8 / deblock=1:-3:-3 / analyse=0x3:0x113 / me=umh / subme=11 / psy=1 / psy_rd=1.00:0.00 / mixed_ref=1 / me_range=32 / chroma_me=1 / trellis=2 / 8x8dct=1 / cqm=0 / deadzone=21,11 / fast_pskip=1 / chroma_qp_offset=-2 / threads=6 / lookahead_threads=1 / sliced_threads=0 / nr=0 / decimate=1 / interlaced=0 / bluray_compat=0 / constrained_intra=0 / bframes=6 / b_pyramid=2 / b_adapt=2 / b_bias=0 / direct=3 / weightb=1 / open_gop=0 / weightp=2 / keyint=240 / keyint_min=24 / scenecut=40 / intra_refresh=0 / rc=2pass / mbtree=0 / bitrate=4691 / ratetol=1.0 / qcomp=0.60 / qpmin=0 / qpmax=69 / qpstep=4 / cplxblur=20.0 / qblur=0.5 / ip_ratio=1.40 / pb_ratio=1.30 / aq=1:1.00
Language : English
Default : Yes
Forced : No
Color primaries : BT.709
Transfer characteristics : BT.709
Matrix coefficients : BT.709
Audio #1
ID : 2
Format : AC-3
Format/Info : Audio Coding 3
Mode extension : CM (complete main)
Format settings, Endianness : Big
Codec ID : A_AC3
Duration : 1h 40mn
Bit rate mode : Constant
Bit rate : 192 Kbps
Channel(s) : 2 channels
Channel positions : Front: L R
Sampling rate : 48.0 KHz
Bit depth : 16 bits
Compression mode : Lossy
Stream size : 138 MiB (3%)
Title : Многоголосый 2.0 (Рен-ТВ)
Language : Russian
Default : Yes
Forced : No
Audio #2
ID : 3
Format : AC-3
Format/Info : Audio Coding 3
Mode extension : CM (complete main)
Format settings, Endianness : Big
Codec ID : A_AC3
Duration : 1h 40mn
Bit rate mode : Constant
Bit rate : 192 Kbps
Channel(s) : 2 channels
Channel positions : Front: L R
Sampling rate : 48.0 KHz
Bit depth : 16 bits
Compression mode : Lossy
Stream size : 138 MiB (3%)
Title : Многоголосый 2.0 (НТВ+)
Language : Russian
Default : No
Forced : No
Audio #3
ID : 4
Format : AC-3
Format/Info : Audio Coding 3
Mode extension : CM (complete main)
Format settings, Endianness : Big
Codec ID : A_AC3
Duration : 1h 40mn
Bit rate mode : Constant
Bit rate : 192 Kbps
Channel(s) : 2 channels
Channel positions : Front: L R
Sampling rate : 48.0 KHz
Bit depth : 16 bits
Compression mode : Lossy
Stream size : 138 MiB (3%)
Title : Многоголосый 2.0 (Останкино)
Language : Russian
Default : No
Forced : No
Audio #4
ID : 5
Format : AC-3
Format/Info : Audio Coding 3
Mode extension : CM (complete main)
Format settings, Endianness : Big
Codec ID : A_AC3
Duration : 1h 40mn
Bit rate mode : Constant
Bit rate : 192 Kbps
Channel(s) : 2 channels
Channel positions : Front: L R
Sampling rate : 48.0 KHz
Bit depth : 16 bits
Compression mode : Lossy
Stream size : 138 MiB (3%)
Title : Многоголосый 2.0 (ОРТ)
Language : Russian
Default : No
Forced : No
Audio #5
ID : 6
Format : AC-3
Format/Info : Audio Coding 3
Mode extension : CM (complete main)
Format settings, Endianness : Big
Codec ID : A_AC3
Duration : 1h 40mn
Bit rate mode : Constant
Bit rate : 192 Kbps
Channel(s) : 2 channels
Channel positions : Front: L R
Sampling rate : 48.0 KHz
Bit depth : 16 bits
Compression mode : Lossy
Stream size : 138 MiB (3%)
Title : Многоголосый 2.0 (Some Wax)
Language : Russian
Default : No
Forced : No
Audio #6
ID : 7
Format : AC-3
Format/Info : Audio Coding 3
Mode extension : CM (complete main)
Format settings, Endianness : Big
Codec ID : A_AC3
Duration : 1h 40mn
Bit rate mode : Constant
Bit rate : 192 Kbps
Channel(s) : 2 channels
Channel positions : Front: L R
Sampling rate : 48.0 KHz
Bit depth : 16 bits
Compression mode : Lossy
Stream size : 138 MiB (3%)
Title : Одноголосый 2.0 (Константин Дьяконов)
Language : Russian
Default : No
Forced : No
Audio #7
ID : 8
Format : AC-3
Format/Info : Audio Coding 3
Mode extension : CM (complete main)
Format settings, Endianness : Big
Codec ID : A_AC3
Duration : 1h 40mn
Bit rate mode : Constant
Bit rate : 192 Kbps
Channel(s) : 2 channels
Channel positions : Front: L R
Sampling rate : 48.0 KHz
Bit depth : 16 bits
Compression mode : Lossy
Stream size : 138 MiB (3%)
Title : Многоголосый 2.0 (Украинский) (NTN)
Language : Ukrainian
Default : No
Forced : No
Audio #8
ID : 9
Format : AC-3
Format/Info : Audio Coding 3
Mode extension : CM (complete main)
Format settings, Endianness : Big
Codec ID : A_AC3
Duration : 1h 40mn
Bit rate mode : Constant
Bit rate : 192 Kbps
Channel(s) : 2 channels
Channel positions : Front: L R
Sampling rate : 48.0 KHz
Bit depth : 16 bits
Compression mode : Lossy
Stream size : 138 MiB (3%)
Title : Французский 2.0 (Оригинал)
Language : French
Default : No
Forced : No

Скриншоты

Яндекс.Метрика
Рейтинг@Mail.ru