Кавказская пленница! (2014, Комедия, мелодрама, приключения, семейный, ремейк) WEB-DLRip | iTunes

 

Создавать темы 14-Мар-2015 22:52

-Кавказская пленница! (ремейк)Информация о фильме
Оригинальное название: Кавказская пленница!
Год выхода: 2014
Жанр: Комедия, мелодрама, приключения, семейный, ремейк
Режиссёр: Максим Воронков
В ролях: Дмитрий Шаракоис, Анастасия Задорожная, Геннадий Хазанов, Арарат Кещян, Семён Стругачев, Сергей Степанченко, Николай Добрынин, Михаил Ефремов, Юлий Гусман, Лариса Удовиченко
О фильме:
Журналист Шурик приезжает на Кавказ, чтобы снять репортаж о местных красотах и традициях, и попадает в Горск, вотчину местного мэра города Георгия Гаджиевича Саахова. Тот, поддерживая моду, заданную губернатором, задумал жениться на молоденькой красавице, спортсменке и даже экстремалке Нине, которая так понравилась Шурику. Используя незадачливого журналиста, Саахов и его подручные похищают Нину. Но, поняв, что его разыграли, Шурик бросается спасать любимую девушку…

Производство: Россия, Viking
Продолжительность: 01:35:34
Перевод: Не требуется (Русский)
Файл
Кодек: XviD
Качество: WEB-DLRip
Видео: XviD, 640x272 (2.25:1), 928 Кбит/с, 24 кадр/с
Звук: Русский, MP3, 48000 Гц, 128 Кбит/с, 2 канала (Стерео)

MediaInfo

General
Complete name : Kavkazskaya.plennitsa.2014.WEB-DLRip.avi
Format : AVI
Format/Info : Audio Video Interleave
File size : 728 MiB
Duration : 1h 35mn
Overall bit rate : 1 065 Kbps
Writing application : VirtualDubMod 1.5.10.3 | www.virtualdub-fr.org || (build 2550/release)
Writing library : VirtualDubMod build 2550/release
Video
ID : 0
Format : MPEG-4 Visual
Format profile : Advanced [email protected]
Format settings, BVOP : 2
Format settings, QPel : No
Format settings, GMC : No warppoints
Format settings, Matrix : Custom
Codec ID : XVID
Codec ID/Hint : XviD
Duration : 1h 35mn
Bit rate : 928 Kbps
Width : 640 pixels
Height : 272 pixels
Display aspect ratio : 2.35:1
Frame rate : 24.000 fps
Color space : YUV
Chroma subsampling : 4:2:0
Bit depth : 8 bits
Scan type : Progressive
Compression mode : Lossy
Bits/(Pixel*Frame) : 0.222
Stream size : 634 MiB (87%)
Writing library : XviD 73
Audio
ID : 1
Format : MPEG Audio
Format version : Version 1
Format profile : Layer 3
Codec ID : 55
Codec ID/Hint : MP3
Duration : 1h 35mn
Bit rate mode : Constant
Bit rate : 128 Kbps
Channel(s) : 2 channels
Sampling rate : 48.0 KHz
Compression mode : Lossy
Stream size : 87.5 MiB (12%)
Alignment : Aligned on interleaves
Interleave, duration : 42 ms (1.00 video frame)
Interleave, preload duration : 504 ms
Writing library : LAME3.99r
Encoding settings : -m s -V 4 -q 2 -lowpass 17 -b 128

Скриншоты:

Создавать темы 14-Мар-2015 22:58 (спустя 5 минут)

ИМХО !!! - хрень полная

Создавать темы 15-Мар-2015 05:22 (спустя 6 часов)

ОМГ.не портийте историю кинематографа.Мало осталось хорошего кино

Создавать темы 15-Мар-2015 19:02 (спустя 13 часов)

Wadim писал(а):

43475ОМГ.не портийте историю кинематографа.Мало осталось хорошего кино
золотые слова

Создавать темы 15-Мар-2015 19:23 (спустя 20 минут)

robinovi писал(а):

43492
Wadim писал(а):

43475ОМГ.не портийте историю кинематографа.Мало осталось хорошего кино
золотые слова
Парни, это не та ''Кавказская пленница'', которая была и остаётся шедевром Советского кино !
Это совсем другая кака !
Яндекс.Метрика
Рейтинг@Mail.ru