[ Сегодня на трекере фрилич! Идет свободное скачивание без начисления Download ]

Канал / The Canal (2014,ужасы, триллер, детектив) WEB-DLRip-AVC | L1

 

Создавать темы 14-Мар-2015 22:48

-Канал / The Canal -Информация о фильме
Название: Канал
Оригинальное название: The Canal
Год выхода: 2014
Жанр: ужасы, триллер, детектив
Режиссер: Иван Кэвэна / Ivan Kavanagh
В ролях: Руперт Эванс (David), Антония Кэмпбелл-Хьюджес (Claire), Стив Орам (McNamara), Ханна Хекстра (Alice), Келли Бирн (Sophie), Кэлам Хит (Billy), Маура Фоли (Woman In garden), Карл Шаабан (Alex), Аннеке Блок, Энтони Мерфи (Policeman 1), Конор Хорган (Stephen), Серена Брабазон (Estate Agent)
О фильме: «Страх будет преследовать Вас»
Дэвид Уильямс работает в кино-архиве. Однажды он застал свою жену за изменой. Не в силах сдержать гнев он расправился с ней. Чтобы скрыть следы, он утопил тело в канале неподалеку. Но теперь его преследуют кошмары. Каково же было его удивление, когда при просмотре очередной старой кинопленки датированной началом XX века он видит на кадрах собственный дом, в котором в 1902 году произошли кровавые события. В те далекие годы в этом доме жил Уильям Джексон с семьей. Но после измены жены он убил ее и детей, а тела утопил в канале. Эта история повторилась спустя много лет. Полиция, которая подозревает Дэвида в исчезновении жены даже не догадывается, что всему виной старый дом, который кроет в себе настоящее зло..

Страна: Ирландия
Студия: Western Edge Pictures, Park Films, Orchard, The
Продолжительность: 01:33:40
Перевод: Любительский (одноголосый) Xixidok
Файл
Кодек: MPEG-4 AVC (MKV)
Качество: WEB-DLRip-AVC
Видео: AVC, 1024x432, 2000 Kbps
Звук: Русский (АС3, 2 ch, 224 Kbps), английский (АС3, 6 ch, 384 Kbps)
Субтитры: английскиe

MediaInfo

General
Unique ID : 218766546466091068272723714086056279584 (0xA494E77E097B9A04A4C2FE108214BE20)
Complete name : G:ДИСК 2�1.ФИЛЬМЫКанал The Canal (2014)The.Canal.2014.L1.WEB-DL-AVC.mkv
Format : Matroska
Format version : Version 4 / Version 2
File size : 1.71 GiB
Duration : 1h 33mn
Overall bit rate : 2 608 Kbps
Encoded date : UTC 2015-03-14 13:02:57
Writing application : mkvmerge v7.5.0 ('Glass Culture') 64bit built on Jan 4 2015 16:48:44
Writing library : libebml v1.3.1 + libmatroska v1.4.2
DURATION : 01:28:19.626000000
NUMBER_OF_FRAMES : 894
NUMBER_OF_BYTES : 22505
_STATISTICS_WRITING_APP : mkvmerge v7.5.0 ('Glass Culture') 64bit built on Jan 4 2015 16:48:44
_STATISTICS_WRITING_DATE_UTC : 2015-03-14 13:02:57
_STATISTICS_TAGS : BPS DURATION NUMBER_OF_FRAMES NUMBER_OF_BYTES
Video
ID : 1
Format : AVC
Format/Info : Advanced Video Codec
Format profile : [email protected]
Format settings, CABAC : Yes
Format settings, ReFrames : 10 frames
Codec ID : V_MPEG4/ISO/AVC
Duration : 1h 33mn
Bit rate : 2 000 Kbps
Width : 1 024 pixels
Height : 432 pixels
Display aspect ratio : 2.40:1
Frame rate mode : Constant
Frame rate : 23.976 fps
Color space : YUV
Chroma subsampling : 4:2:0
Bit depth : 8 bits
Scan type : Progressive
Bits/(Pixel*Frame) : 0.189
Stream size : 1.27 GiB (75%)
Writing library : x264 core 130 r2273 b3065e6
Encoding settings : cabac=1 / ref=10 / deblock=1:-3:-3 / analyse=0x3:0x113 / me=umh / subme=10 / psy=1 / psy_rd=1.00:0.00 / mixed_ref=1 / me_range=32 / chroma_me=1 / trellis=2 / 8x8dct=1 / cqm=0 / deadzone=21,11 / fast_pskip=0 / chroma_qp_offset=-2 / threads=6 / lookahead_threads=1 / sliced_threads=0 / nr=0 / decimate=1 / interlaced=0 / bluray_compat=0 / constrained_intra=0 / bframes=10 / b_pyramid=2 / b_adapt=2 / b_bias=0 / direct=3 / weightb=1 / open_gop=0 / weightp=2 / keyint=240 / keyint_min=23 / scenecut=40 / intra_refresh=0 / rc_lookahead=40 / rc=2pass / mbtree=1 / bitrate=2000 / ratetol=1.0 / qcomp=0.60 / qpmin=0 / qpmax=69 / qpstep=4 / cplxblur=20.0 / qblur=0.5 / ip_ratio=1.40 / aq=1:1.00
Language : English
Default : Yes
Forced : No
Audio #1
ID : 2
Format : AC-3
Format/Info : Audio Coding 3
Mode extension : CM (complete main)
Format settings, Endianness : Big
Codec ID : A_AC3
Duration : 1h 33mn
Bit rate mode : Constant
Bit rate : 224 Kbps
Channel(s) : 2 channels
Channel positions : Front: L R
Sampling rate : 48.0 KHz
Bit depth : 16 bits
Compression mode : Lossy
Stream size : 150 MiB (9%)
Title : Xixidok
Language : Russian
Default : Yes
Forced : No
Audio #2
ID : 3
Format : AC-3
Format/Info : Audio Coding 3
Mode extension : CM (complete main)
Format settings, Endianness : Big
Codec ID : A_AC3
Duration : 1h 33mn
Bit rate mode : Constant
Bit rate : 384 Kbps
Channel(s) : 6 channels
Channel positions : Front: L C R, Side: L R, LFE
Sampling rate : 48.0 KHz
Bit depth : 16 bits
Compression mode : Lossy
Stream size : 257 MiB (15%)
Language : English
Default : No
Forced : No
Text
ID : 4
Format : UTF-8
Codec ID : S_TEXT/UTF8
Codec ID/Info : UTF-8 Plain Text
Language : English
Default : No
Forced : No
Menu
00:00:00.000 : en:'Who Wants to See Ghosts'?
00:05:16.000 : en:Five Years Later
00:08:43.000 : en:The Walk to School, The Archive, First Film
00:12:15.000 : en:The Party
00:16:12.000 : en:Second Film
00:18:22.000 : en:Following Alice and Discovery
00:26:35.000 : en:Detective Mcnamara, Search for Alice
00:41:34.000 : en:The Search for the Killer Begins
00:46:35.000 : en:Testing the Old Camera
00:55:08.000 : en:Skype Call
01:04:30.000 : en:Woman in Canal
01:09:45.000 : en:Mcnamara Returns, Police Station
01:15:36.000 : en:Sewer and Watching Film with Claire
01:23:03.000 : en:The Chase, And Revelations
01:27:53.000 : en:Epilogue, 'Do You Want to Stay Here with Us'?

Скриншоты:

Яндекс.Метрика
Рейтинг@Mail.ru