[ Сегодня на трекере фрилич! Идет свободное скачивание без начисления Download ]

12 месяцев. Новая сказка (2015,Фэнтези, сказка) WEBRip

 

Создавать темы 14-Мар-2015 09:58

-12 месяцев. Новая сказка-Информация о фильме
Название: 12 месяцев. Новая сказка
Год выхода: 2015
Жанр: Фэнтези, сказка
Режиссер: Денис Елеонский
В ролях: Сергей Друзьяк, Антон Юрьев, Анастасия Мельникова, Юлия Такшина, Евгений Воскресенский, Дмитрий Гогу, Владимир Кристовский, Андрей Федорцов, Юрий Гальцев, Андрей Леонов
О фильме:
Девочка из нашего времени попадает в сказочный мир. Среди зимы она должна принести из леса букет подснежников, чтобы наступил Новый Год, который решил отменить злой королевский советник. И только тогда она вернется к родителям.

Производство: Россия, Никола Фильм
Продолжительность: 01:24:07
Перевод: Не требуется
Файл
Кодек: XviD
Качество: WEBRip
Видео: XviD, 1027 Кбит/с, 656x288 (2.25:1), 25 кадр/с
Звук: Русский, MP3, 48000 Гц, 128 Кбит/с, 2 канала (Стерео)
Субтитры: Нет

MediaInfo

General
Complete name : 12.mesyacev.Novaya.skazka.2015.WEBRip.700MB.avi
Format : AVI
Format/Info : Audio Video Interleave
File size : 701 MiB
Duration : 1h 24mn
Overall bit rate : 1 165 Kbps
Writing application : VirtualDubMod 1.5.10.3 | www.virtualdub-fr.org || (build 2550/release)
Writing library : VirtualDubMod build 2550/release
Copyright : rip by ivandubskoj
Video
ID : 0
Format : MPEG-4 Visual
Format profile : Advanced [email protected]
Format settings, BVOP : 1
Format settings, QPel : No
Format settings, GMC : No warppoints
Format settings, Matrix : Custom
Codec ID : XVID
Codec ID/Hint : XviD
Duration : 1h 24mn
Bit rate : 1 027 Kbps
Width : 656 pixels
Height : 288 pixels
Display aspect ratio : 2.25:1
Frame rate : 25.000 fps
Color space : YUV
Chroma subsampling : 4:2:0
Bit depth : 8 bits
Scan type : Progressive
Compression mode : Lossy
Bits/(Pixel*Frame) : 0.217
Stream size : 618 MiB (88%)
Writing library : XviD 73
Audio
ID : 1
Format : MPEG Audio
Format version : Version 1
Format profile : Layer 3
Codec ID : 55
Codec ID/Hint : MP3
Duration : 1h 24mn
Bit rate mode : Constant
Bit rate : 128 Kbps
Channel(s) : 2 channels
Sampling rate : 48.0 KHz
Compression mode : Lossy
Stream size : 77.0 MiB (11%)
Alignment : Aligned on interleaves
Interleave, duration : 40 ms (1.00 video frame)
Interleave, preload duration : 504 ms
Writing library : LAME3.99r
Encoding settings : -m s -V 4 -q 0 -lowpass 17 -b 128

Скриншоты

Яндекс.Метрика
Рейтинг@Mail.ru