[ Сегодня на трекере фрилич! Идет свободное скачивание без начисления Download ]

Ночь в музее: Секрет гробницы / Night at the Museum: Secret of the Tomb (2014 г.) BDRip 1080p

 

Создавать темы 13-Мар-2015 21:57

Ночь в музее: Секрет гробницы / Night at the Museum: Secret of the Tomb Год выпуска: 2014 г.
Жанр: фэнтези, комедия, приключения, семейный
Страна: фэнтези, комедия, приключения, семейный
Режиссер: Шон Леви
Продолжительность: 01:37:48
Перевод: Профессиональный (дублированный)
В ролях:
Бен Стиллер / Ben Stiller (Larry Daley / Laaa), Робин Уильямс / Robin Williams (Teddy Roosevelt / Garuda), Оуэн Уилсон / Owen Wilson (Jedediah), Стив Куган / Steve Coogan (Octavius), Рики Джервэйс / Ricky Gervais (Dr. McPhee), Дэн Стивенс / Dan Stevens (Sir Lancelot), Ребел Уилсон / Rebel Wilson (Tilly), Скайлер Джизондо / Skyler Gisondo (Nick Daley)
Бюджет: $127 000 000
Сборы в США: $112 395 074
Сборы в мире: + $232 900 000 = $345 295 074 сборы
Сборы в России: $9 809 644
Зрители: Россия 2.21 млн
Премьера (мир): 17 декабря 2014, ...
Премьера (РФ): 8 января 2015, «Двадцатый Век Фокс СНГ» 3D
Релиз на DVD: 19 марта 2015, «Двадцатый Век Фокс СНГ», ...
Релиз на Blu-Ray: 19 марта 2015, «Двадцатый Век Фокс СНГ», ...
Файл
Формат видео: MKV
Качество видео: BDRip 1080p | 60fps
Видео кодек: H.264
Аудио кодек: AC3
Видео: 1920x1032 (1.860:1), 59.940 fps, AVC, 9 950 Kbps
Аудио: AC3, 448 Kbps, 48.0 KHz, 6 ch,
Аудио 2: DTS, 755 Kbps, 48.0 KHz, 6 ch,
Cубтитры: русские, украинские, английские
Формат субтитров: softsub (SRT)

Отчёт MediaInfo

General
Complete name : Ночь в Музее- Секрет Гробницы 60fps.mkv
Format : Matroska
File size : 7.77 GiB
Duration : 1h 37mn
Overall bit rate : 11.4 Mbps
Movie name : Night at the Museum: Secret of the Tomb (2014)
Encoded date : UTC 2015-03-12 03:52:21
Writing application : mkvmerge v7.7.0 ('Six Voices') 64bit built on Feb 28 2015 23:39:33
Writing library : libebml v1.3.1 + libmatroska v1.4.2
Video
ID : 1
Format : AVC
Format/Info : Advanced Video Codec
Format profile : [email protected]
Format settings, CABAC : Yes
Format settings, ReFrames : 4 frames
Muxing mode : Container [email protected]
Codec ID : V_MPEG4/ISO/AVC
Duration : 1h 37mn
Bit rate : 9 950 Kbps
Width : 1 920 pixels
Height : 1 032 pixels
Display aspect ratio : 1.860
Frame rate : 59.940 fps
Color space : YUV
Chroma subsampling : 4:2:0
Bit depth : 8 bits
Scan type : Progressive
Bits/(Pixel*Frame) : 0.084
Stream size : 6.80 GiB (87%)
Writing library : x264 core 130 r2273 b3065e6
Encoding settings : cabac=1 / ref=4 / deblock=1:0:0 / analyse=0x3:0 / me=umh / subme=9 / psy=1 / psy_rd=1.00:0.10 / mixed_ref=1 / me_range=42 / chroma_me=0 / trellis=2 / 8x8dct=1 / cqm=0 / deadzone=21,11 / fast_pskip=0 / chroma_qp_offset=-3 / threads=12 / lookahead_threads=1 / sliced_threads=0 / nr=0 / decimate=0 / interlaced=0 / bluray_compat=0 / constrained_intra=0 / bframes=5 / b_pyramid=2 / b_adapt=2 / b_bias=0 / direct=1 / weightb=1 / open_gop=0 / weightp=2 / keyint=594 / keyint_min=59 / scenecut=40 / intra_refresh=0 / rc=crf / mbtree=0 / crf=18.0 / qcomp=0.60 / qpmin=0 / qpmax=69 / qpstep=4 / ip_ratio=1.40 / pb_ratio=1.30 / aq=1:0.90
Audio #1
ID : 2
Format : AC-3
Format/Info : Audio Coding 3
Mode extension : CM (complete main)
Codec ID : A_AC3
Duration : 1h 37mn
Bit rate mode : Constant
Bit rate : 448 Kbps
Channel(s) : 6 channels
Channel positions : Front: L C R, Side: L R, LFE
Sampling rate : 48.0 KHz
Bit depth : 16 bits
Stream size : 313 MiB (4%)
Title : АС3
Language : Russian
Audio #2
ID : 3
Format : DTS
Format/Info : Digital Theater Systems
Codec ID : A_DTS
Duration : 1h 37mn
Bit rate mode : Constant
Bit rate : 755 Kbps
Channel(s) : 6 channels
Channel positions : Front: L C R, Side: L R, LFE
Sampling rate : 48.0 KHz
Bit depth : 24 bits
Stream size : 528 MiB (7%)
Title : DTS 5.1 @ 768 kbps - DUB, Blu-ray EUR
Language : Russian
Text #1
ID : 4
Format : UTF-8
Codec ID : S_TEXT/UTF8
Codec ID/Info : UTF-8 Plain Text
Title : Fors
Language : Russian
Text #2
ID : 5
Format : UTF-8
Codec ID : S_TEXT/UTF8
Codec ID/Info : UTF-8 Plain Text
Title : rus.full
Language : Russian
Text #3
ID : 6
Format : UTF-8
Codec ID : S_TEXT/UTF8
Codec ID/Info : UTF-8 Plain Text
Title : ukr.full
Language : Ukrainian
Text #4
ID : 7
Format : UTF-8
Codec ID : S_TEXT/UTF8
Codec ID/Info : UTF-8 Plain Text
Title : eng.full

Знаете ли Вы, что...

В кадре, где сторож Британского музея передает пластину Ахкменра директору Музея естественной истории в Нью-Йорке видно, что от пластины идет провод.

От Автора

Просьба к переливающим на другие сайты, в оформлении указывайте пожалуйста авторство рипа Ressident

Скриншоты:

Яндекс.Метрика
Рейтинг@Mail.ru