Феи: Легенда о чудовище / Legend of the NeverBeast (2014,мультфильм, фэнтези, приключения, семейный) BDRip-AVC | iTunes

 

Создавать темы 13-Мар-2015 18:38

-Феи: Легенда о чудовище / Legend of the NeverBeast-Информация о фильме
Название: Феи: Легенда о чудовище
Оригинальное название: Legend of the NeverBeast
Год выхода: 2014
Жанр: мультфильм, фэнтези, приключения, семейный
Режиссер: Стив Лотер
В ролях: Мэй Уитман, Джиннифер Гудвин, Розарио Доусон, Люси Лью, Томас Леннон, Рэйвен, Памела Адлон, Меган Хилти, Мелани Браун, Youlika Skafida
О фильме: Анимационная сказка расскажет удивительную историю о веселой и талантливой фее Фауне, которая убеждена в том, что о книге нельзя судить по ее обложке, впрочем, как и о животном по его клыкам, поэтому она дружит с таинственным существом громадных размеров из Нетландии по прозвищу Чудовище. В это время группа волшебных фей разведки не настолько уверены в этом страшном звере и намереваются захватить его прежде, чем он уничтожит их дома. Они хотят отправиться на поиски Чудовища. Фауна, чтобы спасти своего нового друга, остается лишь доказать всем, что он — существо доброе и не собирается вредить другим…

Выпущено: США
Продолжительность: 01:16:14
Озвучивание: Дублированное [iTunes]
Файл
Качество: BDRip (AVC)
Видео: MPEG-4 AVC, 2422 Кбит/с, 1024x576
Аудио: Русский (AC3, 6 ch, 384 Кбит/с), английский (AC3, 6 ch, 448 Кбит/с)
Субтитры: Английские

MI

General
Unique ID : 201590249081351562288891464489841070435 (0x97A8DEA5FC15CF4F8B2ACF43699A1163)
Complete name : C:Fei.Legenda.o.Chudovishe.2014.D.BDRip.AVC.ExKinoRay.mkv
Format : Matroska
Format version : Version 4 / Version 2
File size : 1.73 GiB
Duration : 1h 16mn
Overall bit rate : 3 255 Kbps
Movie name : Fei Legenda o Chudovishe 2014 from ExKinoRay
Encoded date : UTC 2015-03-09 22:02:01
Writing application : mkvmerge v6.6.0 ('The Edge Of The In Between') built on Dec 1 2013 17:55:00
Writing library : libebml v1.3.0 + libmatroska v1.4.1
Video
ID : 1
Format : AVC
Format/Info : Advanced Video Codec
Format profile : [email protected]
Format settings, CABAC : Yes
Format settings, ReFrames : 12 frames
Codec ID : V_MPEG4/ISO/AVC
Duration : 1h 16mn
Bit rate : 2 422 Kbps
Width : 1 024 pixels
Height : 576 pixels
Display aspect ratio : 16:9
Frame rate mode : Constant
Frame rate : 23.976 fps
Color space : YUV
Chroma subsampling : 4:2:0
Bit depth : 8 bits
Scan type : Progressive
Bits/(Pixel*Frame) : 0.171
Stream size : 1.26 GiB (72%)
Title : Enigma
Writing library : x264 core 133 r2334 a3ac64b
Encoding settings : cabac=1 / ref=12 / deblock=1:-1:-2 / analyse=0x3:0x113 / me=umh / subme=10 / psy=1 / psy_rd=1.05:0.15 / mixed_ref=1 / me_range=32 / chroma_me=1 / trellis=2 / 8x8dct=1 / cqm=0 / deadzone=21,11 / fast_pskip=0 / chroma_qp_offset=-3 / threads=12 / lookahead_threads=2 / sliced_threads=0 / nr=0 / decimate=0 / interlaced=0 / bluray_compat=0 / constrained_intra=0 / bframes=8 / b_pyramid=2 / b_adapt=2 / b_bias=0 / direct=3 / weightb=1 / open_gop=0 / weightp=2 / keyint=240 / keyint_min=23 / scenecut=40 / intra_refresh=0 / rc=2pass / mbtree=0 / bitrate=2422 / ratetol=1.0 / qcomp=0.60 / qpmin=0 / qpmax=51 / qpstep=4 / cplxblur=20.0 / qblur=0.5 / ip_ratio=1.40 / pb_ratio=1.30 / aq=1:1.00
Language : English
Default : Yes
Forced : No
Color primaries : BT.709
Transfer characteristics : BT.709
Matrix coefficients : BT.709
Audio #1
ID : 2
Format : AC-3
Format/Info : Audio Coding 3
Mode extension : CM (complete main)
Format settings, Endianness : Big
Codec ID : A_AC3
Duration : 1h 16mn
Bit rate mode : Constant
Bit rate : 384 Kbps
Channel(s) : 6 channels
Channel positions : Front: L C R, Side: L R, LFE
Sampling rate : 48.0 KHz
Bit depth : 16 bits
Compression mode : Lossy
Stream size : 209 MiB (12%)
Title : DUB (iTunes)
Language : Russian
Default : Yes
Forced : No
Audio #2
ID : 3
Format : AC-3
Format/Info : Audio Coding 3
Mode extension : CM (complete main)
Format settings, Endianness : Big
Codec ID : A_AC3
Duration : 1h 16mn
Bit rate mode : Constant
Bit rate : 448 Kbps
Channel(s) : 6 channels
Channel positions : Front: L C R, Side: L R, LFE
Sampling rate : 48.0 KHz
Bit depth : 16 bits
Compression mode : Lossy
Stream size : 244 MiB (14%)
Language : English
Default : No
Forced : No
Text
ID : 4
Format : UTF-8
Codec ID : S_TEXT/UTF8
Codec ID/Info : UTF-8 Plain Text
Language : English
Default : No
Forced : No
Menu
00:00:00.000 : en:00:00:00.000
00:03:08.188 : en:00:03:08.188
00:10:55.071 : en:00:10:55.071
00:16:45.087 : en:00:16:45.087
00:20:26.684 : en:00:20:26.684
00:24:20.501 : en:00:24:20.501
00:30:58.732 : en:00:30:58.732
00:34:42.038 : en:00:34:42.038
00:38:09.245 : en:00:38:09.245
00:41:13.012 : en:00:41:13.012
00:44:39.468 : en:00:44:39.468
00:49:54.992 : en:00:49:54.992
00:53:05.766 : en:00:53:05.766
00:57:07.883 : en:00:57:07.883
01:02:54.688 : en:01:02:54.688
01:07:54.612 : en:01:07:54.612

Скриншоты

Яндекс.Метрика
Рейтинг@Mail.ru