[ Сегодня на трекере фрилич! Идет свободное скачивание без начисления Download ]

Простушка / The DUFF (2015) WEB-DL [H.264/720p-LQ]

 

Создавать темы 12-Мар-2015 23:04

-Простушка / The DUFF (2015) WEB-DL [H.264/720p-LQ]- Производство: США / CBS Films, Vast Entertainment, Wonderland Sound and Vision
Жанр: Комедия
Режиссер: Эри Сандел
Актеры: Мэй Уитман, Робби Амелл, Белла Торн, Бьянка А. Сантос, Скайлер Сэмюэлс, Романи Малко, Ник Эверсман, Крис Уайлд, Кен Жонг, Эллисон Дженни
Описание фильма:
Качок, ботан, рокер, стерва — в каждой компании есть персонажи с такими кличками. Бьянка Пайпер не подозревает, как ее зовут за ее спиной. Подружки списывают у нее физику и берут ее с собой на тусовки, чтобы круче смотреться на ее фоне. Школьный плейбой Уэсли Раш открывает ей глаза на правду… Как Бьянке избавиться от позорного статуса, стать неотразимой и завоевать сердце первого красавца?-Дата мировой премьеры: 12 февраля 2015
Дата российской премьеры: 26 февраля 2015, «Парадиз»
Продолжительность: 01:37:08
Качество видео: WEB-DL 720p-LQ
Перевод: Дублированный (iTunes)
Субтитры: Отсутствуют
Видеокодек: MPEG-4 AVC/H.264
Битрейт видео: ~3938 Кбит/с
Размер кадра: 1280x576
Аудиокодек: AC3, 6 ch
Битрейт аудио: 384 Кбит/с-

MediaInfo:

General
Complete name : O:\Pr0stushk4.2015.D.WEB-DL.720p.mkv
Format : Matroska
File size : 2.99 GiB
Duration : 1h 37mn
Overall bit rate : 4 410 Kbps
Encoded date : UTC 2015-03-12 18:17:28
Writing application : mkvmerge v6.9.1 ('Blue Panther') 64bit built on Apr 18 2014 18:23:38
Writing library : libebml v1.3.0 + libmatroska v1.4.1
Video
ID : 1
Format : AVC
Format/Info : Advanced Video Codec
Format profile : [url=mailto:[email protected]][email protected][/url]
Format settings, CABAC : No
Format settings, ReFrames : 2 frames
Muxing mode : Container [email protected]
Codec ID : V_MPEG4/ISO/AVC
Duration : 1h 37mn
Bit rate : 3 938 Kbps
Width : 960 pixels
Height : 576 pixels
Display aspect ratio : 2.222
Frame rate : 25.000 fps
Resolution : 8 bits
Colorimetry : 4:2:0
Scan type : Progressive
Bits/(Pixel*Frame) : 0.285
Stream size : 2.67 GiB (89%)
Color primaries : BT.709-5, BT.1361, IEC 61966-2-4, SMPTE RP177
Transfer characteristics : BT.709-5, BT.1361
Matrix coefficients : BT.709-5, BT.1361, IEC 61966-2-4 709, SMPTE RP177
Audio
ID : 2
Format : AC-3
Format/Info : Audio Coding 3
Codec ID : A_AC3
Duration : 1h 37mn
Bit rate mode : Constant
Bit rate : 384 Kbps
Channel(s) : 6 channels
Channel positions : Front: L C R, Surround: L R, LFE
Sampling rate : 48.0 KHz
Stream size : 267 MiB (9%)
Language : Russian
Menu
00:00:00.000 : en:Глава 1
00:05:22.000 : en:Глава 2
00:10:17.000 : en:Глава 3
00:16:10.000 : en:Глава 4
00:21:21.000 : en:Глава 5
00:26:54.000 : en:Глава 6
00:31:56.000 : en:Глава 7
00:37:23.000 : en:Глава 8
00:42:10.000 : en:Глава 9
00:47:21.000 : en:Глава 10
00:53:15.000 : en:Глава 11
00:58:19.000 : en:Глава 12
01:04:04.000 : en:Глава 13
01:09:46.000 : en:Глава 14
01:15:12.000 : en:Глава 15
01:20:16.000 : en:Глава 16
01:25:25.000 : en:Глава 17
01:29:53.000 : en:Глава 18
-Скриншоты:
Яндекс.Метрика
Рейтинг@Mail.ru