[ Сегодня на трекере фрилич! Идет свободное скачивание без начисления Download ]

Крутые чуваки на Байю / Bad Asses on the Bayou (2015,боевик, комедия) WEB-DL 720p | L2

 

Создавать темы 11-Мар-2015 15:05

-Крутые чуваки на Байю / Bad Asses on the Bayou-Информация о фильме
Название: Крутые чуваки на Байю
Оригинальное название: Bad Asses on the Bayou
Год выхода: 2015
Жанр: боевик, комедия
Режиссер: Крэйг Мосс
В ролях: Дэнни Трехо, Дэнни Гловер, Джон Эймос, Лони Лав, Джимми Беннетт, Жаклин Флеминг, Майлз Долеак, Джудд Лорманд, Ольга Вильхельмин, Патрик Кернс
О фильме: Фрэнк Вега и Бени Поуп возвращаются — на этот раз они отправляются в Луизиану, где им предстоит найти похищенного друга.

Выпущено: США
Продолжительность: 01:25:12
Озвучивание: Любительское (двухголосое) Студия Пиратского дубляжа (Сладкая парочка)
Файл
Формат: MKV
Качество: WEB-DL 720p
Видео: 3856 kb/s, 1280x690
Аудио: Russian / English: AC3, 384 kb/s (6 ch)

MI

Format : Matroska
Format version : Version 4 / Version 2
File size : 2.81 GiB
Duration : 1h 25mn
Overall bit rate : 4 718 Kbps
Encoded date : UTC 2015-03-10 23:24:38
Writing application : mkvmerge v6.1.0 ('Old Devil') built on Mar 4 2013 09:10:42
Writing library : libebml v1.3.0 + libmatroska v1.4.0
Video
ID : 1
Format : AVC
Format/Info : Advanced Video Codec
Format profile : [email protected]
Format settings, CABAC : No
Format settings, ReFrames : 2 frames
Codec ID : V_MPEG4/ISO/AVC
Duration : 1h 25mn
Bit rate : 3 856 Kbps
Width : 1 280 pixels
Height : 690 pixels
Display aspect ratio : 1.85:1
Frame rate : 23.976 fps
Color space : YUV
Chroma subsampling : 4:2:0
Bit depth : 8 bits
Scan type : Progressive
Bits/(Pixel*Frame) : 0.182
Stream size : 2.29 GiB (82%)
Language : English
Default : Yes
Forced : No
Color primaries : BT.709-5, BT.1361, IEC 61966-2-4, SMPTE RP177
Transfer characteristics : BT.709-5, BT.1361
Matrix coefficients : BT.709-5, BT.1361, IEC 61966-2-4 709, SMPTE RP177
Audio #1
ID : 2
Format : AC-3
Format/Info : Audio Coding 3
Mode extension : CM (complete main)
Format settings, Endianness : Big
Codec ID : A_AC3
Duration : 1h 25mn
Bit rate mode : Constant
Bit rate : 384 Kbps
Channel(s) : 6 channels
Channel positions : Front: L C R, Side: L R, LFE
Sampling rate : 48.0 KHz
Bit depth : 16 bits
Compression mode : Lossy
Stream size : 234 MiB (8%)
Language : Russian
Default : Yes
Forced : No
Audio #2
ID : 3
Format : AC-3
Format/Info : Audio Coding 3
Mode extension : CM (complete main)
Format settings, Endianness : Big
Codec ID : A_AC3
Duration : 1h 25mn
Bit rate mode : Constant
Bit rate : 384 Kbps
Channel(s) : 6 channels
Channel positions : Front: L C R, Side: L R, LFE
Sampling rate : 48.0 KHz
Bit depth : 16 bits
Compression mode : Lossy
Stream size : 234 MiB (8%)
Language : English
Default : No
Forced : No
Menu
00:00:00.000 : en:Chapter 01
00:02:20.000 : en:Chapter 02
00:04:53.000 : en:Chapter 03
00:07:00.000 : en:Chapter 04
00:11:18.000 : en:Chapter 05
00:13:24.000 : en:Chapter 06
00:16:38.000 : en:Chapter 07
00:20:56.000 : en:Chapter 08
00:22:27.000 : en:Chapter 09
00:26:06.000 : en:Chapter 10
00:28:50.000 : en:Chapter 11
00:32:24.000 : en:Chapter 12
00:35:37.000 : en:Chapter 13
00:37:42.000 : en:Chapter 14
00:39:35.000 : en:Chapter 15
00:43:46.000 : en:Chapter 16
00:46:08.000 : en:Chapter 17
00:48:53.000 : en:Chapter 18
00:53:25.000 : en:Chapter 19
00:58:11.000 : en:Chapter 20
01:00:40.000 : en:Chapter 21
01:02:24.000 : en:Chapter 22
01:05:59.000 : en:Chapter 23
01:08:52.000 : en:Chapter 24
01:12:05.000 : en:Chapter 25
01:15:10.000 : en:Chapter 26
01:16:56.000 : en:Chapter 27
01:19:23.000 : en:Chapter 28

Скриншоты

Яндекс.Метрика
Рейтинг@Mail.ru