[ Сегодня на трекере фрилич! Идет свободное скачивание без начисления Download ]

Прогулки с динозаврами 3D в 3Д / Walking with Dinosaurs 3D in 3D (Бэрри Кук, Нил Найтингейл / Barry Cook, Neil Nightingale) [2013, Семейный, BDrip-AVC] Half OverUnder / Вертикальная анаморфная стереопара

 

Создавать темы 10-Мар-2015 17:02

-Прогулки с динозаврами 3D
Walking with Dinosaurs 3D

- Год выпуска: 2013
Страна: США, Великобритания, Индия (20th Century Fox, Reliance Entertainment, IM Global, BBC Earth Films, Evergreen Studios)
Жанр: Семейный
Продолжительность: 1:27:31
Перевод: Профессиональные дублированные Русский и Украинский
Режиссеры: Бэрри Кук, Нил Найтингейл / Barry Cook, Neil Nightingale
Роли исполняли: Чарли Роу (Ricky), Карл Урбан (Uncle Zack), Ангури Райс (Jade), Джон Легуизамо (Alex, озвучка), Джастин Лонг (Patchi, озвучка), Скайлер Стоун (Scowler, озвучка), Тия Сиркар (Juniper, озвучка), Клэй Сэвадж (Radio Announcer, озвучка), Джуд Тинсели (озвучка), Мэри Мэтилин Маусер (озвучка), Кэти Силверман (озвучка), Мэдисон Моэллерс (озвучка), Майкл Леоне (озвучка)
Роли дублировали: Ульяна Иващенко, Пётр Иващенко
-Описание: «Прогулки с динозаврами» — это увлекательное путешествие с полным погружением в 3D-реальность, созданную по инновационной технологии CGI. Мы увидим, как выглядели динозавры, как они жили и с какими опасностями им пришлось столкнуться. Главный герой истории — храбрый динозаврик Патчи, он самый маленький в семье, но именно ему предстоит стать лидером и спасти своих сородичей.-Премьера: 14 декабря 2013 (19 декабря 2013)
Релиз на Blu-Ray (DVD) (Россия): 10 апреля 2014
Бюджет: $80 000 000
Кассовые сборы: $124 718 221

. .
За исходный BD 3D спасибо и MachoSergio!-Качество: BDRip (by Ash61)
Контейнер: MKV
Формат 3D: Half OverUnder / Вертикальная анаморфная стереопара
Порядок ракурсов: левый ракурс первый
Видео кодек: x264
Аудио кодек: AC3-Видео: AVC / 23,976 fps / 1920х1080p / 13.7 Mbps
Аудио:
#1 - Русский / AC3 / 48 KHz / 5.1 ch / 640 Kbps (Дубляж - BD 3D)
#2 - Украинский / AC3 / 48 KHz / 5.1 ch / 448 Kbps (Дубляж - BD 3D)
#3 - Английский / AC3 / 48 KHz / 5.1 ch / 640 Kbps (Original - BD 3D)
Субтитры Внешние (SRT UTF-8):
#1 - Русские Полные (BD 3D)
#2 - Украинские Полные (BD 3D)
#3 - English SDH (BD 3D)

MediaInfo

General
Unique ID : 176469147455581490404611457962914159897 (0x84C2B8B67C7A765CBE6C0B6AD7A51D19)
Complete name : E:\WalkingWithDinosaurs(2013)3D-halfOU(Ash61)\WalkingWithDinosaurs(2013)3D-halfOU(Ash61).mkv
Format : Matroska
Format version : Version 2
File size : 9.64 GiB
Duration : 1h 27mn
Overall bit rate : 15.8 Mbps
Movie name : Прогулки с динозаврами 3D / Walking with Dinosaurs 3D (2013) 3D
Encoded date : UTC 2014-03-14 23:13:38
Writing application : mkvmerge v5.8.0 ('No Sleep / Pillow') built on Sep 2 2012 15:37:04
Writing library : libebml v1.2.3 + libmatroska v1.3.0
Video
ID : 1
Format : AVC
Format/Info : Advanced Video Codec
Format profile : [email protected]
Format settings, CABAC : Yes
Format settings, ReFrames : 4 frames
Codec ID : V_MPEG4/ISO/AVC
Duration : 1h 27mn
Bit rate : 13.7 Mbps
Width : 1 920 pixels
Height : 1 080 pixels
Display aspect ratio : 16:9
Frame rate mode : Constant
Frame rate : 23.976 fps
Color space : YUV
Chroma subsampling : 4:2:0
Bit depth : 8 bits
Scan type : Progressive
Bits/(Pixel*Frame) : 0.276
Stream size : 8.39 GiB (87%)
Title : BDRip by Ash61
Writing library : x264 core 129 r2245 bc13772
Encoding settings : cabac=1 / ref=4 / deblock=1:-3:-3 / analyse=0x3:0x113 / me=umh / subme=10 / psy=1 / psy_rd=1.00:0.15 / mixed_ref=1 / me_range=32 / chroma_me=1 / trellis=2 / 8x8dct=1 / cqm=0 / deadzone=21,11 / fast_pskip=1 / chroma_qp_offset=-3 / threads=12 / lookahead_threads=2 / sliced_threads=0 / nr=0 / decimate=1 / interlaced=0 / bluray_compat=0 / constrained_intra=0 / bframes=8 / b_pyramid=2 / b_adapt=2 / b_bias=0 / direct=3 / weightb=1 / open_gop=0 / weightp=2 / keyint=250 / keyint_min=23 / scenecut=40 / intra_refresh=0 / rc_lookahead=60 / rc=crf / mbtree=1 / crf=17.0 / qcomp=0.70 / qpmin=0 / qpmax=69 / qpstep=4 / vbv_maxrate=40000 / vbv_bufsize=30000 / crf_max=0.0 / nal_hrd=none / frame-packing=4 / ip_ratio=1.40 / aq=1:0.70
Language : English
Default : Yes
Forced : No
Audio #1
ID : 2
Format : AC-3
Format/Info : Audio Coding 3
Mode extension : CM (complete main)
Format settings, Endianness : Big
Codec ID : A_AC3
Duration : 1h 27mn
Bit rate mode : Constant
Bit rate : 640 Kbps
Channel(s) : 6 channels
Channel positions : Front: L C R, Side: L R, LFE
Sampling rate : 48.0 KHz
Bit depth : 16 bits
Compression mode : Lossy
Stream size : 401 MiB (4%)
Title : Дубляж - BD 3D
Language : Russian
Default : Yes
Forced : No
Audio #2
ID : 3
Format : AC-3
Format/Info : Audio Coding 3
Mode extension : CM (complete main)
Format settings, Endianness : Big
Codec ID : A_AC3
Duration : 1h 27mn
Bit rate mode : Constant
Bit rate : 448 Kbps
Channel(s) : 6 channels
Channel positions : Front: L C R, Side: L R, LFE
Sampling rate : 48.0 KHz
Bit depth : 16 bits
Compression mode : Lossy
Stream size : 280 MiB (3%)
Title : Дубляж - BD 3D
Language : Ukrainian
Default : No
Forced : No
Audio #3
ID : 4
Format : AC-3
Format/Info : Audio Coding 3
Mode extension : CM (complete main)
Format settings, Endianness : Big
Codec ID : A_AC3
Duration : 1h 27mn
Bit rate mode : Constant
Bit rate : 640 Kbps
Channel(s) : 6 channels
Channel positions : Front: L C R, Side: L R, LFE
Sampling rate : 48.0 KHz
Bit depth : 16 bits
Compression mode : Lossy
Stream size : 401 MiB (4%)
Title : Original - BD 3D
Language : English
Default : No
Forced : No
Menu
00:00:00.000 : :1
00:01:52.528 : :2
00:05:28.952 : :3
00:07:35.745 : :4
00:12:14.107 : :5
00:14:54.976 : :6
00:17:11.946 : :7
00:18:38.366 : :8
00:21:55.146 : :9
00:24:38.518 : :10
00:27:15.215 : :11
00:28:35.963 : :12
00:30:48.512 : :13
00:33:06.401 : :14
00:37:45.762 : :15
00:42:10.318 : :16
00:44:07.853 : :17
00:47:43.860 : :18
00:51:07.230 : :19
00:52:58.800 : :20
00:56:57.038 : :21
00:58:28.755 : :22
01:02:56.731 : :23
01:06:53.384 : :24
01:10:48.077 : :25
01:17:02.242 : :26
01:18:48.222 : :27
01:20:23.568 : :28

Скриншоты:

Для оценки 3Д - Анимированные скрины

Знаете ли вы, что...:

  • Тираннозавры в этом фильме чешуйчатые, потому что их модели были сделаны еще до того, как произошло открытие гигантского пернатого ютираннуса.
  • Хотя тот факт, что у маленьких хищных динозавров были перья, был известен с конца девяностых годов, это один из первых фильмов, в котором показали таких динозавров. Первый фильм, в котором показали хищников с перьями, был «Парк Юрского периода 3» (2001). Также перья могли появиться в мультфильме «Динозавр» (2000), но ограничения по бюджету и по возможностям анимации на тот момент заставили создателей отказаться от этой идеи.
  • Режиссер-аниматор Марко Маренги работал аниматором и в оригинальном сериале «BBC: Прогулки с динозаврами» (1999).
  • В исследовании, опубликованном в декабре 2013 года, буквально за несколько дней до выхода фильма в прокат, говорится о том, что у эдмонтозавров было что-то в духе «мясистой бородки» или гребня на голове. У моделей в фильме естественно не хватает этой детали.
Яндекс.Метрика
Рейтинг@Mail.ru