Сынок / Fiston (2014,Комедия) BDRip 720p | P

 

Создавать темы 08-Мар-2015 12:45

-Сынок / Fiston-Информация о фильме
Название: Сынок
Оригинальное название: Fiston
Год выхода: 2014
Жанр: Комедия
Режиссер: Паскаль Бюрдо
В ролях: Кев Адамс, Франк Дюбоск, Нора Арнезедер, Валери Бенгиги, Элена Ногуэрра, Элис Иззак, Лоран Бато, Арто Баруссауд, Эмми Стевенин, Марвин Бенхайм
О фильме:
С семи лет Алекс одержим одной мыслью — соблазнить Сандру Валенти, самую красивую девушку в Экс-ан-Провансе, для него самую красивую девушку во всём мире. Время пришло, и он выбирает беспроигрышный план для того, чтобы добиться своей цели. Он решает воспользоваться услугами Антуана Шамона. Того самого человека, который двадцать лет назад соблазнил мать Сандры Монику.

Страна: Франция
Студия: Франция, Monkey Pack Films, Nexus Factory, uFilm
Продолжительность: 01:28:38
Перевод: Профессиональный многоголосый официальный
Файл
Кодек: MPEG-4 AVC
Качество: BDRip 720р
Видео: 5246 Кбит/с, 1286x534
Звук: Русский (AC3, 2 ch, 192 Кбит/с), французский (DTS, 6 ch, 1510 Кбит/с)
Субтитры: Отсутствуют
Дополнительно: Сохранены оригинальные чаптеры (главы) как на Blu-ray
Семпл

MediaInfo

File: D:Видео 2Fiston.2014.P.BDRip.720p.mkv
General
Unique ID : 249005910062732483554557478179058579308 (0xBB54CB39E1272C71B75607389319776C)
Complete name : D:Видео 2Fiston.2014.P.BDRip.720p.mkv
Format : Matroska
Format version : Version 4 / Version 2
File size : 4.28 GiB
Duration : 1h 28mn
Overall bit rate : 6 913 Kbps
Encoded date : UTC 2015-03-07 11:49:17
Writing application : mkvmerge v7.3.0 ('Nouages') 64bit built on Oct 22 2014 18:53:34
Writing library : libebml v1.3.0 + libmatroska v1.4.1
_STATISTICS_WRITING_APP : mkvmerge v7.3.0 ('Nouages') 64bit built on Oct 22 2014 18:53:34
_STATISTICS_WRITING_DATE_UTC : 2015-03-07 11:49:17
_STATISTICS_TAGS : BPS DURATION NUMBER_OF_FRAMES NUMBER_OF_BYTES
DURATION : 01:28:38.176000000
NUMBER_OF_FRAMES : 498579
NUMBER_OF_BYTES : 1003140948
Video
ID : 1
Format : AVC
Format/Info : Advanced Video Codec
Format profile : [email protected]
Format settings, CABAC : Yes
Format settings, ReFrames : 2 frames
Codec ID : V_MPEG4/ISO/AVC
Duration : 1h 28mn
Bit rate : 5 246 Kbps
Width : 1 286 pixels
Height : 534 pixels
Display aspect ratio : 2.40:1
Original display aspect ratio : 2.40:1
Frame rate mode : Constant
Frame rate : 24.000 fps
Color space : YUV
Chroma subsampling : 4:2:0
Bit depth : 8 bits
Scan type : Progressive
Bits/(Pixel*Frame) : 0.318
Stream size : 3.14 GiB (73%)
Writing library : x264 core 142 r2409
Encoding settings : cabac=1 / ref=2 / deblock=1:0:0 / analyse=0x1:0x131 / me=hex / subme=7 / psy=1 / psy_rd=1.00:0.00 / mixed_ref=0 / me_range=16 / chroma_me=1 / trellis=1 / 8x8dct=0 / cqm=0 / deadzone=21,11 / fast_pskip=1 / chroma_qp_offset=-2 / threads=36 / lookahead_threads=4 / sliced_threads=0 / nr=0 / decimate=1 / interlaced=0 / bluray_compat=0 / constrained_intra=0 / bframes=3 / b_pyramid=0 / b_adapt=1 / b_bias=0 / direct=3 / weightb=1 / open_gop=0 / weightp=2 / keyint=240 / keyint_min=24 / scenecut=40 / intra_refresh=0 / rc_lookahead=40 / rc=abr / mbtree=1 / bitrate=5246 / ratetol=1.0 / qcomp=0.60 / qpmin=10 / qpmax=69 / qpstep=4 / vbv_maxrate=24000 / vbv_bufsize=24000 / nal_hrd=none / filler=0 / ip_ratio=1.40 / aq=1:1.00
Language : French
Default : Yes
Forced : Yes
_STATISTICS_WRITING_APP : mkvmerge v7.3.0 ('Nouages') 64bit built on Oct 22 2014 18:53:34
_STATISTICS_WRITING_DATE_UTC : 2015-03-07 11:49:17
_STATISTICS_TAGS : BPS DURATION NUMBER_OF_FRAMES NUMBER_OF_BYTES
DURATION : 01:28:38.209000000
NUMBER_OF_FRAMES : 127637
NUMBER_OF_BYTES : 3462791812
Audio #1
ID : 2
Format : AC-3
Format/Info : Audio Coding 3
Mode extension : CM (complete main)
Format settings, Endianness : Big
Codec ID : A_AC3
Duration : 1h 28mn
Bit rate mode : Constant
Bit rate : 192 Kbps
Channel(s) : 2 channels
Channel positions : Front: L R
Sampling rate : 48.0 KHz
Bit depth : 16 bits
Compression mode : Lossy
Delay relative to video : -42ms
Stream size : 122 MiB (3%)
Language : Russian
Default : Yes
Forced : Yes
Audio #2
ID : 3
Format : DTS
Format/Info : Digital Theater Systems
Mode : 16
Format settings, Endianness : Big
Codec ID : A_DTS
Duration : 1h 28mn
Bit rate mode : Constant
Bit rate : 1 509 Kbps
Channel(s) : 6 channels
Channel positions : Front: L C R, Side: L R, LFE
Sampling rate : 48.0 KHz
Bit depth : 24 bits
Compression mode : Lossy
Delay relative to video : -42ms
Stream size : 957 MiB (22%)
Title : French
Language : French
Default : No
Forced : No
Menu
00:00:00.000 : :00:00:00.000
00:06:57.917 : :00:06:57.917
00:12:44.167 : :00:12:44.167
00:19:37.917 : :00:19:37.917
00:26:18.167 : :00:26:18.167
00:34:10.417 : :00:34:10.417
00:45:38.458 : :00:45:38.458
00:55:04.167 : :00:55:04.167
01:02:44.333 : :01:02:44.333
01:09:29.583 : :01:09:29.583
01:15:13.417 : :01:15:13.417
01:23:16.667 : :01:23:16.667

Скриншоты

Яндекс.Метрика
Рейтинг@Mail.ru