Прирожденные убийцы / Natural Born Killers [Directors Cut] (1994) BDRip 1080p

 

Создавать темы 08-Мар-2015 09:20

«A bold new film that takes a look at a country seduced by fame, obsessed by crime and consumed by the media»- Название: Прирожденные убийцы
Оригинальное название: Natural Born Killers
Год выхода: 1994
Жанр: драма, криминал
Режиссер: Оливер Стоун
В ролях:
Вуди Харрельсон, Джульетт Льюис, Роберт Дауни мл., Томми Ли Джонс, Том Сайзмор, Родни Дейнджерфилд, Эверетт Куинтон, Джаред Харрис, Прюитт Тэйлор Винс, Эди МакКлёрг
О фильме:
Описание
Пара молодых влюбленных, Меллори и Микки, словно подражая легендарным Бонни и Клайду, колесит по одноэтажной Америке и убивает всех, кто попадается им на пути. Они обожают друг друга и ненавидят все остальное человечество. Их хватают и сажают в самую свирепую кутузку.
Однако же череда нелепых и трагических совпадений дает парочке прирожденных убийц еще один шанс поубивать всласть. И они им не преминули попользоваться на всю катушку.
Страна: США
Студия: Warner Bros. Studios
Продолжительность: 02:02:03
Перевод: Профессиональный (многоголосый, закадровый)
Файл
Формат: MKV
Кодек: V_MPEG4/ISO/AVC
Качество: BDRip
Видео: 1920x1080, 59,940 fps, 16:9, 19,6 Мбит/сек
Аудио: AC3 | 5.1 | 48 kHz | 640 kbps | 16 bit
Аудио: TrueHD | 5.1 | 48 kHz | 3069 kbps

MediaInfo

Общее
Уникальный идентификатор : 183095271873225889766452888202943411169 (0x89BEDDDE95EA21619566E1CA2B4033E1)
Полное имя : D:\Myrip60fps\NaturalBornKillers1080p60fps.mkv
Формат : Matroska
Версия формата : Version 4 / Version 2
Размер файла : 19,1 Гбайт
Продолжительность : 2 ч. 2 м.
Режим общего битрейта : Переменный
Общий поток : 22,4 Мбит/сек
Дата кодирования : UTC 2015-03-07 19:26:38
Программа кодирования : mkvmerge v7.7.0 ('Six Voices') 64bit built on Feb 28 2015 23:39:33
Библиотека кодирования : libebml v1.3.1 + libmatroska v1.4.2
_STATISTICS_WRITING_APP : mkvmerge v7.7.0 ('Six Voices') 64bit built on Feb 28 2015 23:39:33
_STATISTICS_WRITING_DATE_UTC : 2015-03-07 19:26:38
_STATISTICS_TAGS : BPS DURATION NUMBER_OF_FRAMES NUMBER_OF_BYTES
DURATION : 01:54:57.850000000
NUMBER_OF_FRAMES : 3014
NUMBER_OF_BYTES : 18328494
Видео
Идентификатор : 1
Формат : AVC
Формат/Информация : Advanced Video Codec
Профиль формата : [email protected]
Параметр CABAC формата : Да
Параметр ReFrames формата : 4 кадра
Идентификатор кодека : V_MPEG4/ISO/AVC
Продолжительность : 2 ч. 2 м.
Номинальный битрейт : 19,6 Мбит/сек
Ширина : 1920 пикселей
Высота : 1080 пикселей
Соотношение сторон : 16:9
Режим частоты кадров : Постоянный
Частота кадров : 60,000 кадров/сек
Частота кадров в оригинале : 59,940 кадров/сек
Цветовое пространство : YUV
Субдискретизация насыщенности : 4:2:0
Битовая глубина : 8 бит
Тип развёртки : Прогрессивная
Бит/(Пиксели*Кадры) : 0.158
Библиотека кодирования : x264 core 142 r2431 ac76440
Настройки программы : cabac=1 / ref=3 / deblock=1:0:0 / analyse=0x3:0x113 / me=hex / subme=7 / psy=1 / psy_rd=1.00:0.00 / mixed_ref=1 / me_range=16 / chroma_me=1 / trellis=1 / 8x8dct=1 / cqm=0 / deadzone=21,11 / fast_pskip=1 / chroma_qp_offset=-2 / threads=12 / lookahead_threads=2 / sliced_threads=0 / nr=0 / decimate=1 / interlaced=0 / bluray_compat=0 / constrained_intra=0 / bframes=3 / b_pyramid=2 / b_adapt=1 / b_bias=0 / direct=1 / weightb=1 / open_gop=0 / weightp=2 / keyint=599 / keyint_min=59 / scenecut=40 / intra_refresh=0 / rc_lookahead=40 / rc=2pass / mbtree=1 / bitrate=19599 / ratetol=1.0 / qcomp=0.60 / qpmin=0 / qpmax=69 / qpstep=4 / cplxblur=20.0 / qblur=0.5 / ip_ratio=1.40 / aq=1:1.00
Default : Да
Forced : Нет
Аудио #1
Идентификатор : 2
Формат : TrueHD
Идентификатор кодека : A_TRUEHD
Продолжительность : 2 ч. 2 м.
Вид битрейта : Переменный
Максимальный битрейт : 3069 Кбит/сек
Каналы : 6 каналов
Расположение каналов : Front: L C R, Side: L R, LFE
Частота : 48,0 КГц
Метод сжатия : Без потерь
Default : Нет
Forced : Нет
Аудио #2
Идентификатор : 4
Формат : AC-3
Формат/Информация : Audio Coding 3
Расширение режима : CM (complete main)
Параметр Endianness формата : Big
Идентификатор кодека : A_AC3
Продолжительность : 2 ч. 2 м.
Вид битрейта : Постоянный
Битрейт : 384 Кбит/сек
Каналы : 6 каналов
Расположение каналов : Front: L C R, Side: L R, LFE
Частота : 48,0 КГц
Битовая глубина : 16 бит
Метод сжатия : С потерями
Размер потока : 335 Мбайт (2%)
Язык : Russian
Default : Да
Forced : Да
Аудио #3
Идентификатор : 3
Формат : AC-3
Формат/Информация : Audio Coding 3
Расширение режима : CM (complete main)
Параметр Endianness формата : Big
Идентификатор кодека : A_AC3
Продолжительность : 2 ч. 2 м.
Вид битрейта : Постоянный
Битрейт : 640 Кбит/сек
Каналы : 6 каналов
Расположение каналов : Front: L C R, Side: L R, LFE
Частота : 48,0 КГц
Битовая глубина : 16 бит
Метод сжатия : С потерями
Размер потока : 559 Мбайт (3%)
Default : Нет
Forced : Нет
Текст
Идентификатор : 5
Формат : PGS
Режим смешивания : zlib
Идентификатор кодека : S_HDMV/PGS
Идентификатор кодека/Информация : The same subtitle format used on BDs/HD-DVDs
Default : Да
Forced : Нет
Меню
00:00:00.000 : en:00:00:00.000
00:07:17.979 : en:00:07:17.979
00:09:01.541 : en:00:09:01.541
00:14:45.343 : en:00:14:45.343
00:17:50.111 : en:00:17:50.111
00:19:55.694 : en:00:19:55.694
00:20:47.246 : en:00:20:47.246
00:23:39.084 : en:00:23:39.084
00:26:42.184 : en:00:26:42.184
00:27:38.991 : en:00:27:38.991
00:31:54.913 : en:00:31:54.913
00:35:45.685 : en:00:35:45.685
00:36:44.327 : en:00:36:44.327
00:39:12.517 : en:00:39:12.517
00:43:12.173 : en:00:43:12.173
00:46:26.158 : en:00:46:26.158
00:50:09.590 : en:00:50:09.590
00:54:09.121 : en:00:54:09.121
00:57:42.459 : en:00:57:42.459
01:03:15.625 : en:01:03:15.625
01:04:51.054 : en:01:04:51.054
01:08:46.539 : en:01:08:46.539
01:10:09.330 : en:01:10:09.330
01:13:01.752 : en:01:13:01.752
01:16:45.559 : en:01:16:45.559
01:18:34.001 : en:01:18:34.001
01:22:08.090 : en:01:22:08.090
01:23:52.903 : en:01:23:52.903
01:25:22.659 : en:01:25:22.659
01:26:41.405 : en:01:26:41.405
01:30:54.157 : en:01:30:54.157
01:33:36.486 : en:01:33:36.486
01:34:33.042 : en:01:34:33.042
01:36:52.932 : en:01:36:52.932
01:39:05.439 : en:01:39:05.439
01:41:57.069 : en:01:41:57.069
01:46:42.938 : en:01:46:42.938
01:48:27.543 : en:01:48:27.543
01:54:10.218 : en:01:54:10.218
01:55:18.120 : en:01:55:18.120

Скриншоты:

Яндекс.Метрика
Рейтинг@Mail.ru