[ Сегодня на трекере фрилич! Идет свободное скачивание без начисления Download ]

(Pop) Madonna - Rebel Heart (Super Deluxe Edition) (2CD) - 2015 [FLAC, tracks+.cue, lossless]

 

Создавать темы 07-Мар-2015 22:36

-Madonna / Rebel Heart (Super Deluxe Edition) (2CD)-- Год издания: 2015
Страна: USA
Жанр: Pop
Продолжительность: 01:42:42-Лейбл издания: INTERSCOPE
Страна-выпуска диска: USA
Номер по каталогу: 0622547244116
Формат: FLAC
Битрейт аудио: lossless
Тип рипа: tracks+.cue
Наличие сканов в содержимом раздачи: да
-

Трэклист

CD 1 || 01:14:26

01. Living For Love (03:39)
02. Devil Pray (04:06)
03. Ghosttown (04:10)
04. Unapologetic Bitch (03:52)
05. Illuminati (03:45)
06. Bitch I'm Madonna (Feat. Nicki Minaj) (03:48)
07. Hold Tight (03:38)
08. Joan Of Arc (04:02)
09. Iconic (Feat. Chance The Rapper & Mike Tyson) (04:34)
10. HeartBreakCity (03:34)
11. Body Shop (03:40)
12. Holy Water (04:10)
13. Inside Out (04:24)
14. Wash All Over Me (04:01)
15. Best Night (03:34)
16. Veni Vidi Vici (Feat. Nas) (04:40)
17. S.E.X. (04:12)
18. Messiah (03:23)
19. Rebel Heart (03:22)

CD 2 || 00:28:17

01. Beautiful Scars (04:20)
02. Borrowed Time (03:25)
03. Addicted (03:34)
04. Graffiti Heart (03:39)
05. Living For Love (PAULO & Jackinsky Full Vocal Mix) (07:14)
06. Living For Love (Funk Generation & H3dRush Dub) (06:08)

Лог создания рипа

CD 1

Exact Audio Copy V1.0 beta 3 from 29. August 2011
EAC extraction logfile from 6. March 2015, 13:21
Madonna / Rebel Heart (Super Deluxe Edition)
Used drive  : ASUS    DRW-24B3ST   Adapter: 2  ID: 0
Read mode               : Secure
Utilize accurate stream : Yes
Defeat audio cache      : Yes
Make use of C2 pointers : No
Read offset correction                      : 6
Overread into Lead-In and Lead-Out          : No
Fill up missing offset samples with silence : Yes
Delete leading and trailing silent blocks   : No
Null samples used in CRC calculations       : Yes
Used interface                              : Native Win32 interface for Win NT & 2000
Gap handling                                : Appended to previous track
Used output format              : User Defined Encoder
Selected bitrate                : 1024 kBit/s
Quality                         : High
Add ID3 tag                     : No
Command line compressor         : C:\Program Files (x86)\Exact Audio Copy\FLAC\flac.exe
Additional command line options : -8 -V -T "ARTIST=%artist%" -T "TITLE=%title%" -T "ALBUM=%albumtitle%" -T "DATE=%year%" -T "TRACKNUMBER=%tracknr%" -T "GENRE=%genre%" -T "PERFORMER=%albuminterpret%" -T "COMPOSER=%composer%" %haslyrics%--tag-from-file=LYRICS="%lyricsfile%"%haslyrics% -T "ALBUMARTIST=%albumartist%" -T "DISCNUMBER=%cdnumber%" -T "TOTALDISCS=%totalcds%" -T "TOTALTRACKS=%numtracks%" -T "COMMENT=%comment%" %source% -o %dest%
TOC of the extracted CD
Track |   Start  |  Length  | Start sector | End sector
---------------------------------------------------------
1  |  0:00.00 |  3:38.54 |         0    |    16403
2  |  3:38.54 |  4:05.56 |     16404    |    34834
3  |  7:44.35 |  4:09.45 |     34835    |    53554
4  | 11:54.05 |  3:51.18 |     53555    |    70897
5  | 15:45.23 |  3:44.46 |     70898    |    87743
6  | 19:29.69 |  3:47.36 |     87744    |   104804
7  | 23:17.30 |  3:37.31 |    104805    |   121110
8  | 26:54.61 |  4:01.60 |    121111    |   139245
9  | 30:56.46 |  4:33.21 |    139246    |   159741
10  | 35:29.67 |  3:33.50 |    159742    |   175766
11  | 39:03.42 |  3:39.30 |    175767    |   192221
12  | 42:42.72 |  4:09.10 |    192222    |   210906
13  | 46:52.07 |  4:23.43 |    210907    |   230674
14  | 51:15.50 |  4:00.68 |    230675    |   248742
15  | 55:16.43 |  3:33.44 |    248743    |   264761
16  | 58:50.12 |  4:39.47 |    264762    |   285733
17  | 63:29.59 |  4:11.37 |    285734    |   304595
18  | 67:41.21 |  3:22.22 |    304596    |   319767
19  | 71:03.43 |  3:21.47 |    319768    |   334889
Track  1
Filename C:\Madonna-Rebel_Heart_(Super_Deluxe_Edition)-2CD-FLAC-2015-1nDD\(101) [Madonna] Living For Love.wav
Pre-gap length  0:00:02.00
Peak level 99.8 %
Extraction speed 3.8 X
Track quality 100.0 %
Test CRC 64DD0E4F
Copy CRC 64DD0E4F
Track not present in AccurateRip database
Copy OK
Track  2
Filename C:\Madonna-Rebel_Heart_(Super_Deluxe_Edition)-2CD-FLAC-2015-1nDD\(102) [Madonna] Devil Pray.wav
Peak level 99.9 %
Extraction speed 4.2 X
Track quality 100.0 %
Test CRC 22BF180B
Copy CRC 22BF180B
Track not present in AccurateRip database
Copy OK
Track  3
Filename C:\Madonna-Rebel_Heart_(Super_Deluxe_Edition)-2CD-FLAC-2015-1nDD\(103) [Madonna] Ghosttown.wav
Peak level 99.9 %
Extraction speed 4.5 X
Track quality 100.0 %
Test CRC 2BED165B
Copy CRC 2BED165B
Track not present in AccurateRip database
Copy OK
Track  4
Filename C:\Madonna-Rebel_Heart_(Super_Deluxe_Edition)-2CD-FLAC-2015-1nDD\(104) [Madonna] Unapologetic Bitch.wav
Peak level 99.8 %
Extraction speed 4.8 X
Track quality 100.0 %
Test CRC BD513FCF
Copy CRC BD513FCF
Track not present in AccurateRip database
Copy OK
Track  5
Filename C:\Madonna-Rebel_Heart_(Super_Deluxe_Edition)-2CD-FLAC-2015-1nDD\(105) [Madonna] Illuminati.wav
Peak level 99.8 %
Extraction speed 5.0 X
Track quality 100.0 %
Test CRC CE3895DF
Copy CRC CE3895DF
Track not present in AccurateRip database
Copy OK
Track  6
Filename C:\Madonna-Rebel_Heart_(Super_Deluxe_Edition)-2CD-FLAC-2015-1nDD\(106) [Madonna] Bitch I'm Madonna (Feat. Nicki Minaj).wav
Peak level 99.8 %
Extraction speed 5.2 X
Track quality 100.0 %
Test CRC 32C7C89B
Copy CRC 32C7C89B
Track not present in AccurateRip database
Copy OK
Track  7
Filename C:\Madonna-Rebel_Heart_(Super_Deluxe_Edition)-2CD-FLAC-2015-1nDD\(107) [Madonna] Hold Tight.wav
Peak level 99.9 %
Extraction speed 5.5 X
Track quality 100.0 %
Test CRC 64C75802
Copy CRC 64C75802
Track not present in AccurateRip database
Copy OK
Track  8
Filename C:\Madonna-Rebel_Heart_(Super_Deluxe_Edition)-2CD-FLAC-2015-1nDD\(108) [Madonna] Joan Of Arc.wav
Peak level 99.9 %
Extraction speed 5.7 X
Track quality 100.0 %
Test CRC D493EBFF
Copy CRC D493EBFF
Track not present in AccurateRip database
Copy OK
Track  9
Filename C:\Madonna-Rebel_Heart_(Super_Deluxe_Edition)-2CD-FLAC-2015-1nDD\(109) [Madonna] Iconic (Feat. Chance The Rapper & Mike Tyson).wav
Peak level 99.8 %
Extraction speed 6.1 X
Track quality 100.0 %
Test CRC 74F88C48
Copy CRC 74F88C48
Track not present in AccurateRip database
Copy OK
Track 10
Filename C:\Madonna-Rebel_Heart_(Super_Deluxe_Edition)-2CD-FLAC-2015-1nDD\(110) [Madonna] HeartBreakCity.wav
Peak level 99.8 %
Extraction speed 6.1 X
Track quality 100.0 %
Test CRC 00883E23
Copy CRC 00883E23
Track not present in AccurateRip database
Copy OK
Track 11
Filename C:\Madonna-Rebel_Heart_(Super_Deluxe_Edition)-2CD-FLAC-2015-1nDD\(111) [Madonna] Body Shop.wav
Peak level 99.9 %
Extraction speed 6.3 X
Track quality 100.0 %
Test CRC 3360C3E8
Copy CRC 3360C3E8
Track not present in AccurateRip database
Copy OK
Track 12
Filename C:\Madonna-Rebel_Heart_(Super_Deluxe_Edition)-2CD-FLAC-2015-1nDD\(112) [Madonna] Holy Water.wav
Peak level 99.8 %
Extraction speed 6.6 X
Track quality 100.0 %
Test CRC 8CD2DCD8
Copy CRC 8CD2DCD8
Track not present in AccurateRip database
Copy OK
Track 13
Filename C:\Madonna-Rebel_Heart_(Super_Deluxe_Edition)-2CD-FLAC-2015-1nDD\(113) [Madonna] Inside Out.wav
Peak level 99.8 %
Extraction speed 5.5 X
Track quality 99.9 %
Test CRC 3377AAF8
Copy CRC 3377AAF8
Track not present in AccurateRip database
Copy OK
Track 14
Filename C:\Madonna-Rebel_Heart_(Super_Deluxe_Edition)-2CD-FLAC-2015-1nDD\(114) [Madonna] Wash All Over Me.wav
Peak level 99.8 %
Extraction speed 7.1 X
Track quality 100.0 %
Test CRC 379A2FB9
Copy CRC 379A2FB9
Track not present in AccurateRip database
Copy OK
Track 15
Filename C:\Madonna-Rebel_Heart_(Super_Deluxe_Edition)-2CD-FLAC-2015-1nDD\(115) [Madonna] Best Night.wav
Peak level 99.8 %
Extraction speed 7.1 X
Track quality 100.0 %
Test CRC 8C434EE8
Copy CRC 8C434EE8
Track not present in AccurateRip database
Copy OK
Track 16
Filename C:\Madonna-Rebel_Heart_(Super_Deluxe_Edition)-2CD-FLAC-2015-1nDD\(116) [Madonna] Veni Vidi Vici (Feat. Nas).wav
Peak level 99.8 %
Extraction speed 7.5 X
Track quality 100.0 %
Test CRC 6638B6DA
Copy CRC 6638B6DA
Track not present in AccurateRip database
Copy OK
Track 17
Filename C:\Madonna-Rebel_Heart_(Super_Deluxe_Edition)-2CD-FLAC-2015-1nDD\(117) [Madonna] S.E.X..wav
Peak level 99.8 %
Extraction speed 7.6 X
Track quality 100.0 %
Test CRC 45E5CFD8
Copy CRC 45E5CFD8
Track not present in AccurateRip database
Copy OK
Track 18
Filename C:\Madonna-Rebel_Heart_(Super_Deluxe_Edition)-2CD-FLAC-2015-1nDD\(118) [Madonna] Messiah.wav
Peak level 99.8 %
Extraction speed 7.4 X
Track quality 100.0 %
Test CRC 0651EA0A
Copy CRC 0651EA0A
Track not present in AccurateRip database
Copy OK
Track 19
Filename C:\Madonna-Rebel_Heart_(Super_Deluxe_Edition)-2CD-FLAC-2015-1nDD\(119) [Madonna] Rebel Heart.wav
Peak level 99.9 %
Extraction speed 7.5 X
Track quality 100.0 %
Test CRC 229602D9
Copy CRC 229602D9
Track not present in AccurateRip database
Copy OK
None of the tracks are present in the AccurateRip database
No errors occurred
End of status report
---- CUETools DB Plugin V2.1.3
[CTDB TOCID: C13PJOtq.p4jHik9r51HT1bhdBc-] found, Submit result: C13PJOtq.p4jHik9r51HT1bhdBc- has been confirmed
[468e8217] (3/3) Accurately ripped

CD 2

Exact Audio Copy V1.0 beta 3 from 29. August 2011
EAC extraction logfile from 6. March 2015, 13:55
Madonna / Rebel Heart (Super Deluxe Edition)
Used drive  : ASUS    DRW-24B3ST   Adapter: 2  ID: 0
Read mode               : Secure
Utilize accurate stream : Yes
Defeat audio cache      : Yes
Make use of C2 pointers : No
Read offset correction                      : 6
Overread into Lead-In and Lead-Out          : No
Fill up missing offset samples with silence : Yes
Delete leading and trailing silent blocks   : No
Null samples used in CRC calculations       : Yes
Used interface                              : Native Win32 interface for Win NT & 2000
Gap handling                                : Appended to previous track
Used output format              : User Defined Encoder
Selected bitrate                : 1024 kBit/s
Quality                         : High
Add ID3 tag                     : No
Command line compressor         : C:\Program Files (x86)\Exact Audio Copy\FLAC\flac.exe
Additional command line options : -8 -V -T "ARTIST=%artist%" -T "TITLE=%title%" -T "ALBUM=%albumtitle%" -T "DATE=%year%" -T "TRACKNUMBER=%tracknr%" -T "GENRE=%genre%" -T "PERFORMER=%albuminterpret%" -T "COMPOSER=%composer%" %haslyrics%--tag-from-file=LYRICS="%lyricsfile%"%haslyrics% -T "ALBUMARTIST=%albumartist%" -T "DISCNUMBER=%cdnumber%" -T "TOTALDISCS=%totalcds%" -T "TOTALTRACKS=%numtracks%" -T "COMMENT=%comment%" %source% -o %dest%
TOC of the extracted CD
Track |   Start  |  Length  | Start sector | End sector
---------------------------------------------------------
1  |  0:00.00 |  4:19.01 |         0    |    19425
2  |  4:19.01 |  3:24.54 |     19426    |    34779
3  |  7:43.55 |  3:33.24 |     34780    |    50778
4  | 11:17.04 |  3:38.47 |     50779    |    67175
5  | 14:55.51 |  7:13.67 |     67176    |    99717
6  | 22:09.43 |  6:07.01 |     99718    |   127243
Track  1
Filename C:\Madonna-Rebel_Heart_(Super_Deluxe_Edition)-2CD-FLAC-2015-1nDD\(201) [Madonna] Beautiful Scars.wav
Pre-gap length  0:00:02.00
Peak level 99.8 %
Extraction speed 3.6 X
Track quality 100.0 %
Test CRC D0D00D95
Copy CRC D0D00D95
Track not present in AccurateRip database
Copy OK
Track  2
Filename C:\Madonna-Rebel_Heart_(Super_Deluxe_Edition)-2CD-FLAC-2015-1nDD\(202) [Madonna] Borrowed Time.wav
Peak level 96.4 %
Extraction speed 3.8 X
Track quality 100.0 %
Test CRC B211BAA7
Copy CRC B211BAA7
Track not present in AccurateRip database
Copy OK
Track  3
Filename C:\Madonna-Rebel_Heart_(Super_Deluxe_Edition)-2CD-FLAC-2015-1nDD\(203) [Madonna] Addicted.wav
Peak level 92.1 %
Extraction speed 4.1 X
Track quality 100.0 %
Test CRC C082897A
Copy CRC C082897A
Track not present in AccurateRip database
Copy OK
Track  4
Filename C:\Madonna-Rebel_Heart_(Super_Deluxe_Edition)-2CD-FLAC-2015-1nDD\(204) [Madonna] Graffiti Heart.wav
Peak level 99.9 %
Extraction speed 4.4 X
Track quality 100.0 %
Test CRC 096604ED
Copy CRC 096604ED
Track not present in AccurateRip database
Copy OK
Track  5
Filename C:\Madonna-Rebel_Heart_(Super_Deluxe_Edition)-2CD-FLAC-2015-1nDD\(205) [Madonna] Living For Love (PAULO & Jackinsky Full Vocal Mix).wav
Peak level 93.2 %
Extraction speed 4.5 X
Track quality 99.9 %
Test CRC D0F2ABAD
Copy CRC D0F2ABAD
Track not present in AccurateRip database
Copy OK
Track  6
Filename C:\Madonna-Rebel_Heart_(Super_Deluxe_Edition)-2CD-FLAC-2015-1nDD\(206) [Madonna] Living For Love (Funk Generation & H3dRush Dub).wav
Peak level 87.5 %
Extraction speed 5.5 X
Track quality 100.0 %
Test CRC 4BE4ED89
Copy CRC 4BE4ED89
Track not present in AccurateRip database
Copy OK
None of the tracks are present in the AccurateRip database
No errors occurred
End of status report
---- CUETools DB Plugin V2.1.3
[CTDB TOCID: sdb6Kl5BHrRMQC0.9BTOOczazY0-] found, Submit result: already submitted
[28800483] (2/2) Accurately ripped

Индексная карта (non-compilant .cue)

CD 1

REM GENRE Pop
REM DATE 2015
REM DISCID 0A117113
REM COMMENT "ExactAudioCopy v1.0b3"
CATALOG 0602547202130
PERFORMER "Madonna"
TITLE "Rebel Heart (Super Deluxe Edition)"
FILE "101-madonna-living_for_love-1ndd.flac" WAVE
TRACK 01 AUDIO
TITLE "Living For Love"
PERFORMER "Madonna"
ISRC USUG11401960
INDEX 01 00:00:00
FILE "102-madonna-devil_pray-1ndd.flac" WAVE
TRACK 02 AUDIO
TITLE "Devil Pray"
PERFORMER "Madonna"
ISRC USUG11401962
INDEX 01 00:00:00
FILE "103-madonna-ghosttown-1ndd.flac" WAVE
TRACK 03 AUDIO
TITLE "Ghosttown"
PERFORMER "Madonna"
ISRC USUG11401963
INDEX 01 00:00:00
FILE "104-madonna-unapologetic_bitch-1ndd.flac" WAVE
TRACK 04 AUDIO
TITLE "Unapologetic Bitch"
PERFORMER "Madonna"
ISRC USUG11401964
INDEX 01 00:00:00
FILE "105-madonna-illuminati-1ndd.flac" WAVE
TRACK 05 AUDIO
TITLE "Illuminati"
PERFORMER "Madonna"
ISRC USUG11401965
INDEX 01 00:00:00
FILE "106-madonna-bitch_im_madonna_(feat_nicki_minaj)-1ndd.flac" WAVE
TRACK 06 AUDIO
TITLE "Bitch I'm Madonna (Feat. Nicki Minaj)"
PERFORMER "Madonna"
ISRC USUG11401961
INDEX 01 00:00:00
FILE "107-madonna-hold_tight-1ndd.flac" WAVE
TRACK 07 AUDIO
TITLE "Hold Tight"
PERFORMER "Madonna"
ISRC USUG11401966
INDEX 01 00:00:00
FILE "108-madonna-joan_of_arc-1ndd.flac" WAVE
TRACK 08 AUDIO
TITLE "Joan Of Arc"
PERFORMER "Madonna"
ISRC USUG11401967
INDEX 01 00:00:00
FILE "109-madonna-iconic_(feat_chance_the_rapper_and_mike_tyson)-1ndd.flac" WAVE
TRACK 09 AUDIO
TITLE "Iconic (Feat. Chance The Rapper & Mike Tyson)"
PERFORMER "Madonna"
ISRC USUG11401968
INDEX 01 00:00:00
FILE "110-madonna-heartbreakcity-1ndd.flac" WAVE
TRACK 10 AUDIO
TITLE "HeartBreakCity"
PERFORMER "Madonna"
ISRC USUG11401969
INDEX 01 00:00:00
FILE "111-madonna-body_shop-1ndd.flac" WAVE
TRACK 11 AUDIO
TITLE "Body Shop"
PERFORMER "Madonna"
ISRC USUG11401970
INDEX 01 00:00:00
FILE "112-madonna-holy_water-1ndd.flac" WAVE
TRACK 12 AUDIO
TITLE "Holy Water"
PERFORMER "Madonna"
ISRC USUG11401971
INDEX 01 00:00:00
FILE "113-madonna-inside_out-1ndd.flac" WAVE
TRACK 13 AUDIO
TITLE "Inside Out"
PERFORMER "Madonna"
ISRC USUG11401972
INDEX 01 00:00:00
FILE "114-madonna-wash_all_over_me-1ndd.flac" WAVE
TRACK 14 AUDIO
TITLE "Wash All Over Me"
PERFORMER "Madonna"
ISRC USUG11401973
INDEX 01 00:00:00
FILE "115-madonna-best_night-1ndd.flac" WAVE
TRACK 15 AUDIO
TITLE "Best Night"
PERFORMER "Madonna"
ISRC USUG11401974
INDEX 01 00:00:00
FILE "116-madonna-veni_vidi_vici_(feat_nas)-1ndd.flac" WAVE
TRACK 16 AUDIO
TITLE "Veni Vidi Vici (Feat. Nas)"
PERFORMER "Madonna"
ISRC USUG11401975
INDEX 01 00:00:00
FILE "117-madonna-sex-1ndd.flac" WAVE
TRACK 17 AUDIO
TITLE "S.E.X."
PERFORMER "Madonna"
ISRC USUG11401976
INDEX 01 00:00:00
FILE "118-madonna-messiah-1ndd.flac" WAVE
TRACK 18 AUDIO
TITLE "Messiah"
PERFORMER "Madonna"
ISRC USUG11401977
INDEX 01 00:00:00
FILE "119-madonna-rebel_heart-1ndd.flac" WAVE
TRACK 19 AUDIO
TITLE "Rebel Heart"
PERFORMER "Madonna"
ISRC USUG11401979
INDEX 01 00:00:00

CD 2

REM GENRE Pop
REM DATE 2015
REM DISCID 5006A006
REM COMMENT "ExactAudioCopy v1.0b3"
CATALOG 0602547244574
PERFORMER "Madonna"
TITLE "Rebel Heart (Super Deluxe Edition)"
FILE "201-madonna-beautiful_scars-1ndd.flac" WAVE
TRACK 01 AUDIO
TITLE "Beautiful Scars"
PERFORMER "Madonna"
ISRC USUG11500135
INDEX 01 00:00:00
FILE "202-madonna-borrowed_time-1ndd.flac" WAVE
TRACK 02 AUDIO
TITLE "Borrowed Time"
PERFORMER "Madonna"
ISRC USUG11500136
INDEX 01 00:00:00
FILE "203-madonna-addicted-1ndd.flac" WAVE
TRACK 03 AUDIO
TITLE "Addicted"
PERFORMER "Madonna"
ISRC USUG11500137
INDEX 01 00:00:00
FILE "204-madonna-graffiti_heart-1ndd.flac" WAVE
TRACK 04 AUDIO
TITLE "Graffiti Heart"
PERFORMER "Madonna"
ISRC USUG11500140
INDEX 01 00:00:00
FILE "205-madonna-living_for_love_(paulo_and_jackinsky_full_vocal_mix)-1ndd.flac" WAVE
TRACK 05 AUDIO
TITLE "Living For Love (PAULO & Jackinsky Full Vocal Mix)"
PERFORMER "Madonna"
ISRC USUG11500134
INDEX 01 00:00:00
FILE "206-madonna-living_for_love_(funk_generation_and_h3drush_dub)-1ndd.flac" WAVE
TRACK 06 AUDIO
TITLE "Living For Love (Funk Generation & H3dRush Dub)"
PERFORMER "Madonna"
ISRC USUG11500127
INDEX 01 00:00:00

Лог Audiochecker

AUDIOCHECKER v2.0 beta (build 457) - by Dester - [email protected]
~~~~~~~~~~~~~~~~~~~~~~~~~~~~~~~~~~
Started at: суббота, 07. 03. 2015. - 21:49.50
25 files found
01 -===- D:\Torrent files\Madonna - Rebel Heart - 2015 (2CD FLAC)\1.01 - Living For Love.flac
Extracted successfully
Conclusion: this track is CDDA with probability 100%
Tempfile successfully deleted.
02 -===- D:\Torrent files\Madonna - Rebel Heart - 2015 (2CD FLAC)\1.02 - Devil Pray.flac
Extracted successfully
Conclusion: this track is CDDA with probability 100%
Tempfile successfully deleted.
03 -===- D:\Torrent files\Madonna - Rebel Heart - 2015 (2CD FLAC)\1.03 - Ghosttown.flac
Extracted successfully
Conclusion: this track is CDDA with probability 100%
Tempfile successfully deleted.
04 -===- D:\Torrent files\Madonna - Rebel Heart - 2015 (2CD FLAC)\1.04 - Unapologetic Bitch.flac
Extracted successfully
Conclusion: this track is CDDA with probability 99%
Tempfile successfully deleted.
05 -===- D:\Torrent files\Madonna - Rebel Heart - 2015 (2CD FLAC)\1.05 - Illuminati.flac
Extracted successfully
Conclusion: this track is CDDA with probability 100%
Tempfile successfully deleted.
06 -===- D:\Torrent files\Madonna - Rebel Heart - 2015 (2CD FLAC)\1.06 - Bitch I'm Madonna (Feat. Nicki Minaj).flac
Extracted successfully
Conclusion: this track is CDDA with probability 100%
Tempfile successfully deleted.
07 -===- D:\Torrent files\Madonna - Rebel Heart - 2015 (2CD FLAC)\1.07 - Hold Tight.flac
Extracted successfully
Conclusion: this track is CDDA with probability 100%
Tempfile successfully deleted.
08 -===- D:\Torrent files\Madonna - Rebel Heart - 2015 (2CD FLAC)\1.08 - Joan Of Arc.flac
Extracted successfully
Conclusion: this track is CDDA with probability 100%
Tempfile successfully deleted.
09 -===- D:\Torrent files\Madonna - Rebel Heart - 2015 (2CD FLAC)\1.09 - Iconic (Feat. Chance The Rapper & Mike Tyson).flac
Extracted successfully
Conclusion: this track is CDDA with probability 100%
Tempfile successfully deleted.
10 -===- D:\Torrent files\Madonna - Rebel Heart - 2015 (2CD FLAC)\1.10 - HeartBreakCity.flac
Extracted successfully
Conclusion: this track is CDDA with probability 100%
Tempfile successfully deleted.
11 -===- D:\Torrent files\Madonna - Rebel Heart - 2015 (2CD FLAC)\1.11 - Body Shop.flac
Extracted successfully
Conclusion: this track is CDDA with probability 100%
Tempfile successfully deleted.
12 -===- D:\Torrent files\Madonna - Rebel Heart - 2015 (2CD FLAC)\1.12 - Holy Water.flac
Extracted successfully
Conclusion: this track is CDDA with probability 100%
Tempfile successfully deleted.
13 -===- D:\Torrent files\Madonna - Rebel Heart - 2015 (2CD FLAC)\1.13 - Inside Out.flac
Extracted successfully
Conclusion: this track is CDDA with probability 100%
Tempfile successfully deleted.
14 -===- D:\Torrent files\Madonna - Rebel Heart - 2015 (2CD FLAC)\1.14 - Wash All Over Me.flac
Extracted successfully
Conclusion: this track is CDDA with probability 100%
Tempfile successfully deleted.
15 -===- D:\Torrent files\Madonna - Rebel Heart - 2015 (2CD FLAC)\1.15 - Best Night.flac
Extracted successfully
Conclusion: this track is CDDA with probability 99%
Tempfile successfully deleted.
16 -===- D:\Torrent files\Madonna - Rebel Heart - 2015 (2CD FLAC)\1.16 - Veni Vidi Vici (Feat. Nas).flac
Extracted successfully
Conclusion: this track is CDDA with probability 100%
Tempfile successfully deleted.
17 -===- D:\Torrent files\Madonna - Rebel Heart - 2015 (2CD FLAC)\1.17 - S.E.X..flac
Extracted successfully
Conclusion: this track is CDDA with probability 100%
Tempfile successfully deleted.
18 -===- D:\Torrent files\Madonna - Rebel Heart - 2015 (2CD FLAC)\1.18 - Messiah.flac
Extracted successfully
Conclusion: this track is CDDA with probability 100%
Tempfile successfully deleted.
19 -===- D:\Torrent files\Madonna - Rebel Heart - 2015 (2CD FLAC)\1.19 - Rebel Heart.flac
Extracted successfully
Conclusion: this track is CDDA with probability 100%
Tempfile successfully deleted.
20 -===- D:\Torrent files\Madonna - Rebel Heart - 2015 (2CD FLAC)\2.01 - Beautiful Scars.flac
Extracted successfully
Conclusion: this track is CDDA with probability 100%
Tempfile successfully deleted.
21 -===- D:\Torrent files\Madonna - Rebel Heart - 2015 (2CD FLAC)\2.02 - Borrowed Time.flac
Extracted successfully
Conclusion: this track is CDDA with probability 99%
Tempfile successfully deleted.
22 -===- D:\Torrent files\Madonna - Rebel Heart - 2015 (2CD FLAC)\2.03 - Addicted.flac
Extracted successfully
Conclusion: this track is MPEG with probability 95%
Tempfile successfully deleted.
23 -===- D:\Torrent files\Madonna - Rebel Heart - 2015 (2CD FLAC)\2.04 - Graffiti Heart.flac
Extracted successfully
Conclusion: this track is CDDA with probability 99%
Tempfile successfully deleted.
24 -===- D:\Torrent files\Madonna - Rebel Heart - 2015 (2CD FLAC)\2.05 - Living For Love (PAULO & Jackinsky Full Vocal Mix).flac
Extracted successfully
Conclusion: this track is CDDA with probability 99%
Tempfile successfully deleted.
25 -===- D:\Torrent files\Madonna - Rebel Heart - 2015 (2CD FLAC)\2.06 - Living For Love (Funk Generation & H3dRush Dub).flac
Extracted successfully
Conclusion: this track is CDDA with probability 100%
Tempfile successfully deleted.
Finished at: суббота, 07. 03. 2015. - 21:56.46 (operation time: 0:06.55)

Скриншот спектра частот

--
Яндекс.Метрика
Рейтинг@Mail.ru