Освободитель / Libertador (2013) DVDRip [H.264]

 

Создавать темы 07-Мар-2015 22:21

-Освободитель / Libertador (2013) DVDRip [H.264]- Производство: Венесуэла, Испания | Producciones Insurgentes, San Mateo Films, WMG Film
Жанр: Драма, биография, история
Режиссер: Альберто Арвело
Актеры: Эдгар Рамирес, Эрих Вильдпрет, Мария Вальверде, Хуана Акоста, Иманоль Ариас, Леандро Арвело, Марта Бенвенути, Хон Бермудес, Дасио Кабаллеро, Алехандро Ферт
Описание фильма:
В основе всех событий мы видим историю героя Венесуэлы. Этим героем является Симон Боливар. Симон - знаменитый генерал Венесуэлы, который освободил ее от испанского господства, кроме этого он вел освободительную победную войну за Новую Гранаду, провинцию Кито, а уже в 1819-1830 годах занимал пост президента Великой Колумбии, которая была создана на территории всех этих стран-Дата мировой премьеры: 9 сентября 2013
Продолжительность: 01:58:32
Качество видео: DVDRip от URBiN4HD
Перевод: Любительский двухголосый (Студия Пиратского дубляжа)
Субтитры: Отсутствуют
Видео: MPEG-4 AVC/H.264, 720x392 (16:9), 29.970 fps, 1 800 Kbps (0.213 bit/pixel)
Аудио #1: AC-3, 48.0 KHz, 2 ch, 384 Kbps, CBR (Русский)
Аудио #2: AC-3, 48.0 KHz, 6 ch, 384 Kbps, CBR (Испанский)

Mediainfo:

Complete name                        \Libertador.2013.DVDRip.mkv
Format                                   : Matroska
Format version                           : Version 2
File size                                : 2.12 GiB
Duration                                 : 1h 58mn
Overall bit rate                         : 2 564 Kbps
Movie name                               : Libertador 2014
Encoded date                             : UTC 2015-03-07 16:13:22
Writing application                      : mkvmerge v5.8.0 ('No Sleep / Pillow') built on Sep  2 2012 15:37:04
Writing library                          : libebml v1.2.3 + libmatroska v1.3.0
Video
ID                                       : 1
Format                                   : AVC
Format/Info                              : Advanced Video Codec
Format profile                           : [url=mailto:[email protected]][email protected][/url]
Format settings, CABAC                   : Yes
Format settings, ReFrames                : 4 frames
Codec ID                                 : V_MPEG4/ISO/AVC
Duration                                 : 1h 58mn
Bit rate                                 : 1 800 Kbps
Width                                    : 720 pixels
Height                                   : 392 pixels
Display aspect ratio                     : 1.85:1
Frame rate mode                          : Constant
Frame rate                               : 29.970 fps
Color space                              : YUV
Chroma subsampling                       : 4:2:0
Bit depth                                : 8 bits
Scan type                                : Progressive
Bits/(Pixel*Frame)                       : 0.213
Stream size                              : 1.44 GiB (68%)
Writing library                          : x264 core 142 r2479 dd79a61
Encoding settings                        : cabac=1 / ref=3 / deblock=1:-1:-1 / analyse=0x3:0x113 / me=hex / subme=7 / psy=1 / psy_rd=1.00:0.15 / mixed_ref=1 / me_range=16 / chroma_me=1 / trellis=1 / 8x8dct=1 / cqm=0 / deadzone=21,11 / fast_pskip=1 / chroma_qp_offset=-3 / threads=3 / lookahead_threads=1 / sliced_threads=0 / nr=0 / decimate=1 / interlaced=0 / bluray_compat=0 / constrained_intra=0 / bframes=3 / b_pyramid=2 / b_adapt=1 / b_bias=0 / direct=1 / weightb=1 / open_gop=0 / weightp=2 / keyint=300 / keyint_min=29 / scenecut=40 / intra_refresh=0 / rc_lookahead=40 / rc=abr / mbtree=1 / bitrate=1800 / ratetol=1.0 / qcomp=0.60 / qpmin=0 / qpmax=69 / qpstep=4 / vbv_maxrate=25000 / vbv_bufsize=31250 / nal_hrd=none / filler=0 / ip_ratio=1.40 / aq=1:1.00
Default                                  : Yes
Forced                                   : No
Audio #1
ID                                       : 2
Format                                   : AC-3
Format/Info                              : Audio Coding 3
Mode extension                           : CM (complete main)
Format settings, Endianness              : Big
Codec ID                                 : A_AC3
Duration                                 : 1h 58mn
Bit rate mode                            : Constant
Bit rate                                 : 384 Kbps
Channel(s)                               : 2 channels
Channel positions                        : Front: L R
Sampling rate                            : 48.0 KHz
Bit depth                                : 16 bits
Compression mode                         : Lossy
Stream size                              : 326 MiB (15%)
Language                                 : Russian
Default                                  : Yes
Forced                                   : No
Audio #2
ID                                       : 3
Format                                   : AC-3
Format/Info                              : Audio Coding 3
Mode extension                           : CM (complete main)
Format settings, Endianness              : Big
Codec ID                                 : A_AC3
Duration                                 : 1h 58mn
Bit rate mode                            : Constant
Bit rate                                 : 384 Kbps
Channel(s)                               : 6 channels
Channel positions                        : Front: L C R, Side: L R, LFE
Sampling rate                            : 48.0 KHz
Bit depth                                : 16 bits
Compression mode                         : Lossy
Stream size                              : 326 MiB (15%)
Language                                 : Spanish
Default                                  : No
Forced                                   : No
Menu
00:00:00.000                             : en:Chapter 1
00:09:23.500                             : en:Chapter 2
00:18:21.500                             : en:Chapter 3
00:30:06.500                             : en:Chapter 4
00:42:05.000                             : en:Chapter 5
00:51:44.000                             : en:Chapter 6
00:57:54.500                             : en:Chapter 7
01:13:53.000                             : en:Chapter 8
01:22:45.500                             : en:Chapter 9
01:35:10.000                             : en:Chapter 10
01:46:17.000                             : en:Chapter 11
01:53:20.000                             : en:Chapter 12
Скриншоты:
Яндекс.Метрика
Рейтинг@Mail.ru