Мой Лучший Роман / A Novel Romance (2015) HDTVRip [H.264/720p-LQ]

 

Создавать темы 07-Мар-2015 22:12

-Мой Лучший Роман / A Novel Romance (2015) HDTVRip HDTVRip [H.264/720p-LQ]- Производство: США, Write Man Films, Larkin-Goldstein Productions
Жанр: Мелодрама
Режиссер: Марк Гриффитс
Актеры: Эми Экер, Дилан Брюс, Тэми Джиллис, Кейси Мандерсон, Чарльз Даттон
Описание фильма:
Молодой и успешный писатель приезжает инкогнито в маленький городок, чтобы отдохнуть и преодолеть творческий кризис. Там он знакомится с прекрасной девушкой и у них начинается роман. Проблема в том, что он не может рассказать ей, кто он. Ведь она - известный критик и пишет разгромные рецензии на его произведения.-Полнометражный телевизионный фильм канала Hallmark. Романтическая сказка для взрослых.--Дата мировой премьеры: 10 января 2015
Продолжительность: 01:23:20
Качество видео: HDTVRip
Перевод: Одноголосый закадровый, любительский (Lord32x)
Субтитры: Вшитые (отключаемые)
Язык субтитров: Русские, английские
Видеокодек: MPEG-4 AVC/H.264
Битрейт видео: ~3039 Кбит/с
Размер кадра: 1280x720
Аудио 1: Русский AC3, 6 ch, 384 Кбит/с
Аудио 2: Английский AC3, 6 ch, 384 Кбит/с-

MediaInfo:

General
Complete name : O:\2 0 1 5\A.Novel.Romance.2015.HDTV.720p.mkv
Format : Matroska
File size : 2.26 GiB
Duration : 1h 23mn
Overall bit rate : 3 885 Kbps
Encoded date : UTC 2015-03-07 14:05:10
Writing application : mkvmerge v6.1.0 ('Old Devil') built on Mar 4 2013 09:10:42
Writing library : libebml v1.3.0 + libmatroska v1.4.0
Video
ID : 1
Format : AVC
Format/Info : Advanced Video Codec
Format profile : [url=mailto:[email protected]][email protected][/url]
Format settings, CABAC : Yes
Format settings, ReFrames : 5 frames
Muxing mode : Container [email protected]
Codec ID : V_MPEG4/ISO/AVC
Duration : 1h 23mn
Bit rate : 3 039 Kbps
Width : 1 280 pixels
Height : 720 pixels
Display aspect ratio : 16:9
Frame rate : 23.976 fps
Resolution : 8 bits
Colorimetry : 4:2:0
Scan type : Progressive
Bits/(Pixel*Frame) : 0.138
Stream size : 1.77 GiB (78%)
Writing library : x264 core 144 r2525 40bb568
Encoding settings : cabac=1 / ref=5 / deblock=1:0:0 / analyse=0x3:0x113 / me=umh / subme=8 / psy=1 / psy_rd=1.00:0.00 / mixed_ref=1 / me_range=16 / chroma_me=1 / trellis=1 / 8x8dct=1 / cqm=0 / deadzone=21,11 / fast_pskip=1 / chroma_qp_offset=-2 / threads=12 / lookahead_threads=2 / sliced_threads=0 / nr=0 / decimate=1 / interlaced=0 / bluray_compat=0 / constrained_intra=0 / bframes=3 / b_pyramid=2 / b_adapt=2 / b_bias=0 / direct=3 / weightb=1 / open_gop=0 / weightp=2 / keyint=250 / keyint_min=25 / scenecut=40 / intra_refresh=0 / rc_lookahead=50 / rc=crf / mbtree=1 / crf=18.0 / qcomp=0.60 / qpmin=0 / qpmax=69 / qpstep=4 / ip_ratio=1.40 / aq=1:1.00
Audio #1
ID : 2
Format : AC-3
Format/Info : Audio Coding 3
Codec ID : A_AC3
Duration : 1h 23mn
Bit rate mode : Constant
Bit rate : 384 Kbps
Channel(s) : 6 channels
Channel positions : Front: L C R, Surround: L R, LFE
Sampling rate : 48.0 KHz
Stream size : 229 MiB (10%)
Title : Lord32x
Language : Russian
Audio #2
ID : 3
Format : AC-3
Format/Info : Audio Coding 3
Codec ID : A_AC3
Duration : 1h 23mn
Bit rate mode : Constant
Bit rate : 384 Kbps
Channel(s) : 6 channels
Channel positions : Front: L C R, Surround: L R, LFE
Sampling rate : 48.0 KHz
Stream size : 229 MiB (10%)
Title : Original
Text #1
ID : 4
Format : UTF-8
Codec ID : S_TEXT/UTF8
Codec ID/Info : UTF-8 Plain Text
Title : Михаил Васильев
Language : Russian
Text #2
ID : 5
Format : UTF-8
Codec ID : S_TEXT/UTF8
Codec ID/Info : UTF-8 Plain Text
Title : Original
-Скриншоты:
Яндекс.Метрика
Рейтинг@Mail.ru