[ Сегодня на трекере фрилич! Идет свободное скачивание без начисления Download ]

Сваты (2013) WEB-DLRip [H.264/720p-LQ] (сезон 6, серии 1-16 из 16)

 

Создавать темы 07-Мар-2015 21:44

-Сваты (2013) WEB-DLRip [H.264/720p-LQ] (сезон 6, серии 1-16 из 16)- Производство: "Студия Квартал-95", Телеканал "Интер", Украина
Жанр: семейная комедия
Режиссер: Андрей Яковлев
Актеры: Людмила Артемьева, Фёдор Добронравов, Татьяна Кравченко, Анатолий Васильев, София Стеценко, Николай Добрынин, Маргарита Шубина-Описание фильма:
События происходят через полгода после событий, происходивших в сериале «Сваты 5». В шестом сезоне сюжет впервые охватывает не только сезон летних каникул, а целый год. Сваты с внуками успеют поздравить любимых женщин с 8 марта, «ухандокаться» на посадочно-поливочной-уборочной, отправить Евгению учиться в институт, конечно, не забыв при этом разругаться в пух и прах. Также поздравить ветеранов с 9 мая, пережить с Митяем все трудности беременности Ларисы. Отметят удачно совпавший с днем Милиции юбилей Ивана. Будько-Ковалёвы-Берковичи побывают на «Евро-2012», прокатятся на круизном лайнере по Волге, задержат беглого преступника, спасут урожай для страны, а страну от бюрократии, женят Берковича, побывают в прошлом и встретят Новый год.-Дата российской премьеры: 01.10.2013
Продолжительность: ~ 00:50:00 серия
Качество видео: WEB-DLRip
Видеокодек: AVC/H.264
Битрейт видео: ~1600 Kbps
Размер кадра: 1280x720 (16:9)
Аудиокодек: AC3
Битрейт аудио: 2 ch, 192 Kbps

MediaInfo:

Общее
Уникальный идентификатор : 172917713320611547672434275705682017038 (0x8216BD7DBDD44B0C841CC31DAD223B0E)
Полное имя : E:\DOWNLOADS\Сваты (6 сезон) 2013 WEB-DLRip 720\Сваты 6 - 01 серия.mkv
Формат : Matroska
Версия формата : Version 2
Размер файла : 631 Мбайт
Продолжительность : 49 м.
Общий поток : 1797 Кбит/сек
Дата кодирования : UTC 2015-03-07 15:52:01
Программа кодирования : mkvmerge v6.1.0 ('Old Devil') built on Mar 4 2013 09:10:42
Библиотека кодирования : libebml v1.3.0 + libmatroska v1.4.0
Видео
Идентификатор : 1
Формат : AVC
Формат/Информация : Advanced Video Codec
Профиль формата : [url=mailto:[email protected]][email protected][/url]
Параметр CABAC формата : Да
Параметр ReFrames формата : 1 кадр
Параметр GOP формата : M=1, N=60
Идентификатор кодека : V_MPEG4/ISO/AVC
Продолжительность : 49 м.
Битрейт : 1569 Кбит/сек
Ширина : 1280 пикселей
Высота : 720 пикселей
Соотношение сторон : 16:9
Режим частоты кадров : Постоянный
Частота кадров : 25,000 кадров/сек
Цветовое пространство : YUV
Субдискретизация насыщенности : 4:2:0
Битовая глубина : 8 бит
Тип развёртки : Прогрессивная
Бит/(Пиксели*Кадры) : 0.068
Размер потока : 551 Мбайт (87%)
Default : Да
Forced : Нет
Аудио
Идентификатор : 2
Формат : AC-3
Формат/Информация : Audio Coding 3
Расширение режима : CM (complete main)
Параметр Endianness формата : Big
Идентификатор кодека : A_AC3
Продолжительность : 49 м.
Вид битрейта : Постоянный
Битрейт : 192 Кбит/сек
Каналы : 2 канала
Расположение каналов : Front: L R
Частота : 44,1 КГц
Битовая глубина : 16 бит
Метод сжатия : С потерями
Размер потока : 67,5 Мбайт (11%)
Default : Да
Forced : Нет
Скриншоты:

Время раздачи: с 10.00 до 20.00
Яндекс.Метрика
Рейтинг@Mail.ru