Большие глаза / Big Eyes (Тим Бёртон / Tim Burton) [2014, США, Канада, драма, биография, WEB-DLRip] Dub

 

Создавать темы 07-Мар-2015 20:35

Большие глаза / Big Eyes«She created it. He sold it. And they bought it»

(Золотой глобус, 2015 год / Лучшая женская роль (комедия или мюзикл) - Эми Адамс) Страна: США, Канада
Жанр: драма, биография
Год выпуска: 2014
Продолжительность: 01:45:36
Перевод: Профессиональный (полное дублирование) |iTunes Russia|
Cубтитры: нет-Режиссер: Тим Бёртон / Tim Burton-В ролях: Эми Адамс, Кристоф Вальц, Кристен Риттер, Джейсон Шварцман, Дэнни Хьюстон, Теренс Стэмп, Джон Полито, Элизабетта Фантоне, Джеймс Саито, Гуидо Фурлани-Описание: Яркая и цветущая Америка 50-х. В сочных красках Сан-Франциско зарождается то, что разрушит традиционный взгляд на искусство и бесповоротно изменит то, как выглядит наша жизнь. Появившийся из ниоткуда художник Уолтер Кин придумал поп-арт. Его необычные картины, изображающие трогательных детей с огромными глазами, произвели настоящий фурор и буквально заполонили весь мир. Их печатают на календарях, открытках, домохозяйки щеголяют в фартуках с их изображением. Уолтер становится королем современного искусства, одним из самых известных арт-деятелей планеты.
Но на пике славы художника его скромная супруга Маргарет вдруг утверждает, что Уолтер — мошенник, и именно она — автор знаменитых картин. Неожиданно открываются шокирующие подробности жизни четы Кин. Весь мир замер в ожидании ответа на вопрос: кто же все-таки тот гений, чьи смелые и оригинальные картины украшают теперь каждую гостиную от Парижа до Аляски?- -Автор рипа: Yarmak23-Качество видео: WEB-DLRip | исх. WEB-DL 720p |
Формат видео: AVI
Видео: 720x384 (1.85:1), 24.000 fps, XviD 65 ~1568 kbps avg, 0.236 bit/pixel
Аудио: 48 kHz, AC3 Dolby Digital, 3/2 (L,C,R,l,r) + LFE ch, ~384.00 kbps Constant |Дубляж, iTunes Russia|
Скачать: Сэмпл-

MI

General
Complete name : Bolshie.Glaza.2014.D.ituns.WEB-DLRip.1.45GB.by.Yarmak23.avi
Format : AVI
Format/Info : Audio Video Interleave
File size : 1.45 GiB
Duration : 1h 45mn
Overall bit rate : 1 962 Kbps
Writing application : VirtualDubMod 1.5.10.3 | www.virtualdub-fr.org || (build 2550/release)
Writing library : VirtualDubMod build 2550/release
Video
ID : 0
Format : MPEG-4 Visual
Format profile : Advanced [email protected]
Format settings, BVOP : 1
Format settings, QPel : No
Format settings, GMC : No warppoints
Format settings, Matrix : Custom
Codec ID : XVID
Codec ID/Hint : XviD
Duration : 1h 45mn
Bit rate : 1 568 Kbps
Width : 720 pixels
Height : 384 pixels
Display aspect ratio : 1.85:1
Frame rate : 24.000 fps
Color space : YUV
Chroma subsampling : 4:2:0
Bit depth : 8 bits
Scan type : Progressive
Compression mode : Lossy
Bits/(Pixel*Frame) : 0.236
Stream size : 1.16 GiB (80%)
Writing library : XviD 65
Audio
ID : 1
Format : AC-3
Format/Info : Audio Coding 3
Mode extension : CM (complete main)
Format settings, Endianness : Big
Codec ID : 2000
Duration : 1h 45mn
Bit rate mode : Constant
Bit rate : 384 Kbps
Channel(s) : 2 channels
Channel positions : Front: L R
Sampling rate : 48.0 KHz
Bit depth : 16 bits
Compression mode : Lossy
Stream size : 290 MiB (20%)
Alignment : Split accross interleaves
Interleave, duration : 42 ms (1.00 video frame)
Interleave, preload duration : 500 ms

Скриншоты

- детям до 13 лет просмотр не желателен
Яндекс.Метрика
Рейтинг@Mail.ru