[ Сегодня на трекере фрилич! Идет свободное скачивание без начисления Download ]

Чистая победа (Валерий Тимощенко) [2013, Документальный, история, военный, IPTVRip]

 

Создавать темы 04-Окт-2013 19:54

Чистая победа
Год выпуска: 2013
Страна: Россия
Жанр: Документальный, история, военный
Продолжительность: 00:39:05
Перевод: Не требуется
Режиссер: Валерий Тимощенко
Описание: Об одной из самых блестящих операций времен Великой Отечественной войны - штурме Новороссийска советскими войсками в сентябре 1943 года. Это история о том, как наши командиры, большинству из которых тогда было немногим больше двадцати лет, благодаря дерзости, отваге, уму и военному таланту переиграли в смертельной схватке лучших немецких военных специалистов.
Качество: IPTVRip
Формат: AVI
Видео: XviD, 704x400, (1.76:1), 1484 kbps avg, 25 fps, 0.21 bit/pixel
Аудио: 48 kHz, MPEG Layer 3, 2 ch, ~128.00 kbps avg

MediaInfo

General
Complete name : C:\Users\Acer\Desktop\раздача\Чистая победа.2013.IPTVRip.avi
Format : AVI
Format/Info : Audio Video Interleave
File size : 453 MiB
Duration : 39mn 4s
Overall bit rate : 1 621 Kbps
Video
ID : 0
Format : MPEG-4 Visual
Format profile : Advanced [email protected]
Format settings, BVOP : 2
Format settings, QPel : No
Format settings, GMC : No warppoints
Format settings, Matrix : Default (H.263)
Codec ID : XVID
Codec ID/Hint : XviD
Duration : 39mn 4s
Bit rate : 1 484 Kbps
Width : 704 pixels
Height : 400 pixels
Display aspect ratio : 16:9
Frame rate : 25.000 fps
Color space : YUV
Chroma subsampling : 4:2:0
Bit depth : 8 bits
Scan type : Progressive
Compression mode : Lossy
Bits/(Pixel*Frame) : 0.211
Stream size : 415 MiB (92%)
Writing library : XviD 1.2.1 (UTC 2008-12-04)
Audio
ID : 1
Format : MPEG Audio
Format version : Version 1
Format profile : Layer 3
Mode : Joint stereo
Mode extension : MS Stereo
Codec ID : 55
Codec ID/Hint : MP3
Duration : 39mn 4s
Bit rate mode : Constant
Bit rate : 128 Kbps
Channel(s) : 2 channels
Sampling rate : 48.0 KHz
Compression mode : Lossy
Stream size : 35.8 MiB (8%)
Alignment : Aligned on interleaves
Interleave, duration : 40 ms (1.00 video frame)
Interleave, preload duration : 504 ms
Writing library : LAMEЄ

Скриншоты

Яндекс.Метрика
Рейтинг@Mail.ru