Камеди Клаб / Комеди Клаб / Comedy Club (06.03.2015) WEBRip

 

Создавать темы 06-Мар-2015 14:52

- Камеди Клаб / Комеди Клаб / Comedy Club (06.03.2015) WEBRip - Телекомпания: ТНТ
Жанр: Юмор
Описание:
«Comedy Club» был создан в 2005 году командой КВН «Новые армяне», в состав которой входили Артур Джанибекян, Артак Гаспарян, Артур Тумасян, Арташес Саркисян, Гарик Мартиросян и другие. Его идея была задумана ещё в 2001 году, когда Арташес Саркисян, побывав в США, увидел местный «Comedy Club». Временами стали появляться новые участники «Comedy Club», в основном из КВН. 23 апреля 2005 года «Comedy Club» впервые вышел в эфир телеканала ТНТ. Рейтинги программы стали бить все рекорды и это приносило программе большие доходы, на которые они стали делать другие проекты. Впоследствии они создали свою продюсерскую компанию «Comedy Club Production». 15 апреля 2007 года на ТНТ был показан сотый выпуск программы. Регулярно выходят новые выпуски и другие проекты - например спецвыпуски на Первом канале, юмористические фестивали и продюсирование участниками «Comedy Club» проекты других телепередач. 23 апреля 2010 года «Comedy Club» вышло с новой музыкой и обновлённым оформлением. Также «Comedy Club» выходит на каналах ICTV, НТВ+ - Мир и Comedy TV.
Как всегда, Comedy Club собрал все самое смешное, чтобы оставаться самым крутым юмористическим шоу на телевидении. Камеры готовы? Музыканты готовы? Зрители готовы? Поехали!
Участники:
Гарик Мартиросян, Вадим Галыгин, Павел Воля, Тимур Батрутдинов, Александр Ревва, Гавр, Олег Верещагин, Дмитрий Сорокин, Зураб Матуa, Андрей Аверин, Алексей Лихницкий, Роман Юнусов, Антон Лирник, Андрей Молочный, Александр Незлобин, Дмитрий Хрусталёв, Васильев Виктор, Сергей Бессмертный, Александр Незлобин, Игорь Меерсон, Семён Слепаков, Михаил Галустян и др.
Продолжительность: ~ 00:49:15
Качество видео: WEBRip
Видеокодек: xvid
Битрейт видео: ~1650 kb/s
Размер кадра: 720 x 400
Аудиокодек: MP3, 2ch.
Битрейт аудио: 128 kb/s

Mediainfo:

Формат                                   : AVI
Формат/Информация                        : Audio Video Interleave
Размер файла                             : 631 Мбайт
Продолжительность                        : 49 м.
Общий поток                              : 1792 Кбит/сек
Программа кодирования                    : Lavf55.43.100
Видео
Идентификатор                            : 0
Формат                                   : MPEG-4 Visual
Профиль формата                          : [email protected]
Параметр BVOP формата                    : Нет
Параметр QPel формата                    : Нет
Параметр GMC формата                     : Без точки перехода
Параметр матрицы формата                 : Default (H.263)
Идентификатор кодека                     : XVID
Идентификатор кодека/Подсказка           : XviD
Продолжительность                        : 49 м.
Битрейт                                  : 1651 Кбит/сек
Ширина                                   : 720 пикселей
Высота                                   : 400 пикселей
Соотношение сторон                       : 16:9
Частота кадров                           : 25,000 кадров/сек
Цветовое пространство                    : YUV
Субдискретизация насыщенности            : 4:2:0
Битовая глубина                          : 8 бит
Тип развёртки                            : Прогрессивная
Метод сжатия                             : С потерями
Бит/(Пиксели*Кадры)                      : 0.229
Размер потока                            : 582 Мбайт (92%)
Библиотека кодирования                   : XviD 64
Аудио
Идентификатор                            : 1
Формат                                   : MPEG Audio
Версия формата                           : Version 1
Профиль формата                          : Layer 3
Режим                                    : Joint stereo
Расширение режима                        : MS Stereo
Идентификатор кодека                     : 55
Идентификатор кодека/Подсказка           : MP3
Продолжительность                        : 49 м.
Вид битрейта                             : Постоянный
Битрейт                                  : 128 Кбит/сек
Каналы                                   : 2 канала
Частота                                  : 48,0 КГц
Метод сжатия                             : С потерями
Размер потока                            : 45,1 Мбайт (7%)
Выравнивание                             : Соединение по промежуткам
Продолжительность промежутка             : 24  мс. (0,60 видеокадр)
Время предзагрузки промежутка            : 24  мс.
Библиотека кодирования                   : LAME3.99.5
Скриншоты:
Яндекс.Метрика
Рейтинг@Mail.ru