(Heavy Metal) Astral Doors - Notes From The Shadows - 2014 [FLAC, image+.cue, lossless]

 

Создавать темы 05-Мар-2015 15:20

-Astral Doors / Notes From The Shadows-- Год издания: 2014
Страна: Sweden
Жанр: Heavy Metal
Продолжительность: 00:49:11-Лейбл издания: MetalVille
Страна-выпуска диска: Germany
Номер по каталогу: MV0047
Формат: FLAC
Битрейт аудио: lossless
Тип рипа: image+.cue
Наличие сканов в содержимом раздачи: да
-

Трэклист

01. The Last Temptation Of Christ (03:24)
02. Disciples Of The Dragon Lord (04:49)
03. Wailing Wall (05:27)
04. Shadowchaser (04:51)
05. Die Alone (09:14)
06. Hoodoo Ceremony (01:25)
07. Southern Conjuration (03:47)
08. Walker The Stalker (03:49)
09. Desert Nights (03:38)
10. In The Name Of Rock (04:06)
11. Confessions (04:45)

Лог создания рипа

Exact Audio Copy V1.0 beta 3 from 29. August 2011
EAC extraction logfile from 5. September 2014, 20:17
Astral Doors / Notes From The Shadows
Used drive  : HP      DVD Writer 1170d   Adapter: 0  ID: 0
Read mode               : Secure
Utilize accurate stream : Yes
Defeat audio cache      : Yes
Make use of C2 pointers : No
Read offset correction                      : 6
Overread into Lead-In and Lead-Out          : No
Fill up missing offset samples with silence : Yes
Delete leading and trailing silent blocks   : No
Null samples used in CRC calculations       : Yes
Used interface                              : Native Win32 interface for Win NT & 2000
Used output format              : User Defined Encoder
Selected bitrate                : 768 kBit/s
Quality                         : High
Add ID3 tag                     : No
Command line compressor         : C:\Program Files (x86)\Exact Audio Copy\FLAC\FLAC.EXE
Additional command line options : -V -8 -T "Date=%year%" -T "Genre=%genre%" -T"COMMENT=Ripped by Ungern666" -8 -V %source%
TOC of the extracted CD
Track |   Start  |  Length  | Start sector | End sector
---------------------------------------------------------
1  |  0:00.00 |  3:23.52 |         0    |    15276
2  |  3:23.52 |  4:48.14 |     15277    |    36890
3  |  8:11.66 |  5:26.47 |     36891    |    61387
4  | 13:38.38 |  4:50.68 |     61388    |    83205
5  | 18:29.31 |  9:13.29 |     83206    |   124709
6  | 27:42.60 |  1:24.21 |    124710    |   131030
7  | 29:07.06 |  3:46.68 |    131031    |   148048
8  | 32:53.74 |  3:48.67 |    148049    |   165215
9  | 36:42.66 |  3:37.41 |    165216    |   181531
10  | 40:20.32 |  4:05.55 |    181532    |   199961
11  | 44:26.12 |  4:44.55 |    199962    |   221316
Range status and errors
Selected range
Filename C:\EAC\Ungern666\Astral Doors - Notes From The Shadows.wav
Peak level 100.0 %
Extraction speed 7.1 X
Range quality 100.0 %
Test CRC 89B45CA3
Copy CRC 89B45CA3
Copy OK
No errors occurred
AccurateRip summary
Track  1  not present in database
Track  2  not present in database
Track  3  not present in database
Track  4  not present in database
Track  5  not present in database
Track  6  not present in database
Track  7  not present in database
Track  8  not present in database
Track  9  not present in database
Track 10  not present in database
Track 11  not present in database
None of the tracks are present in the AccurateRip database
End of status report

Индексная карта (non-compilant .cue)

REM DATE 2014
REM DISCID 8B0B860B
REM COMMENT "ExactAudioCopy v1.0b3"
PERFORMER "Astral Doors"
TITLE "Notes From The Shadows"
FILE "Astral Doors - Notes From The Shadows.flac" WAVE
TRACK 01 AUDIO
TITLE "The Last Temptation Of Christ "
PERFORMER "Astral Doors"
INDEX 01 00:00:00
TRACK 02 AUDIO
TITLE "Disciples Of The Dragon Lord"
PERFORMER "Astral Doors"
INDEX 01 03:23:52
TRACK 03 AUDIO
TITLE "Wailing Wall"
PERFORMER "Astral Doors"
INDEX 01 08:11:66
TRACK 04 AUDIO
TITLE "Shadowchaser"
PERFORMER "Astral Doors"
INDEX 00 13:37:38
INDEX 01 13:38:38
TRACK 05 AUDIO
TITLE "Die Alone"
PERFORMER "Astral Doors"
INDEX 00 18:28:31
INDEX 01 18:29:31
TRACK 06 AUDIO
TITLE "Hoodoo Ceremony"
PERFORMER "Astral Doors"
INDEX 01 27:42:60
TRACK 07 AUDIO
TITLE "Southern Conjuration"
PERFORMER "Astral Doors"
INDEX 01 29:07:06
TRACK 08 AUDIO
TITLE "Walker The Stalker"
PERFORMER "Astral Doors"
INDEX 00 32:52:74
INDEX 01 32:53:74
TRACK 09 AUDIO
TITLE "Desert Nights"
PERFORMER "Astral Doors"
INDEX 01 36:42:66
TRACK 10 AUDIO
TITLE "In The Name Of Rock"
PERFORMER "Astral Doors"
INDEX 00 40:19:32
INDEX 01 40:20:32
TRACK 11 AUDIO
TITLE "Confessions"
PERFORMER "Astral Doors"
INDEX 01 44:26:12

Лог Audiochecker

AUDIOCHECKER v2.0 beta (build 457) - by Dester - [email protected]
~~~~~~~~~~~~~~~~~~~~~~~~~~~~~~~~~~
Started at: четверг, 05. 03. 2015. - 13:46.44
1 file found
1 -===- D:\Torrent files\Astral Doors - Notes From The Shadows - 2014\Astral Doors - Notes From The Shadows.flac
Extracted successfully
Conclusion: this track is CDDA with probability 100%
Tempfile successfully deleted.
Finished at: четверг, 05. 03. 2015. - 13:49.10 (operation time: 0:02.26)

Скриншот спектра частот

Об исполнителе (группе)

Astral Doors - шведская пауэр-метал группа, которая берёт своё начало с 2002 года, именно тогда сложился коллектив и было выбрано название группы. Уникальный стиль группе придаёт своеобразный вокал Nils-а Patrik-а Johansson-а и то, что музыканты ориентируются на классиков жанра (Black Sabbath, Rainbow и Deep Purple).
В 2002 году была записана первая демка имеющая название «Far Beyond the Astral Doors». Материал был написан Йоханссоном, Норблундом и Линштетом. Через год был записан довольно удачный альбом- Of The Son And The Father, завоевавший множество положительных откликов.
В феврале 2005 года на том же лейбле состоялся релиз второго альбома «Evil Is Forever», японское издание которого содержит бонус-трек «Another Day in Hell», в сентябре того же года вышел EP «Raiders of the Ark» содержащий видео-клип на песню «Time To Rock».
Первый успех, ребята почувствовали в 2006 году, во время разогрева Blind Guardian. Astral Doors сопровождали их во время турне в поддержку альбома A Twist in the Myth.
В марте 2006 года состоялся релиз третьего полноформатного альбома «Astralism», запись которого сделана на Big Turn Studio что в Швеции, сведение сделано на Abyss Studios также в Швеции. Над обложкой к альбому трудился художник Mattias Eriksson. Альбом был переиздан в августе 2006 года в виде диджипака, содержащего в качестве бонуса перезаписанный трек «21st Century Medieval». Звучание было ремастировано и доведено до ума.
После группа работает над новым материалом к альбому «New Revelation», который вышел в сентябре 2006 года на лейбле Locomotive Music. Диск был записан в студиях Big Turn и The Darkside (Borlänge, Швеция), микшированием занимался Peter Tägtgren в своей студии Abyss Studios при помощи участников группы.
В 2008 группа начинает работу над новым альбомом «Requiem Of Time», который вышел 15 января в Европе и 16 февраля в Северной Америке на новом немецком лейбле Metalville в 2010 году. Из группы по личным причинам уходит Mika Itaranta, ему на замену пришёл Ulf Lagerström который участвовал в группах Lunatic Parade и Barfly. Позднее группу покидает гитарист Martin Haglund.
В ноябре 2010 группа выпустила компиляцию лучших песен, получившую название «Testament Of Rock - The Best Of Astral Doors». Релиз состоялся на немецком лейбле Metaville, компании Flying Dolphin Entertainment Group UG. В нее вошли 14 треков, среди которых редкая композиция - английский вариант песни «Victory», ранее выходившей только на шведском языке на отдельном сингле на территории Швеции.
В 2011 году ребята начинают работу над новым альбомом получившим название «Jerusalem». Сведением альбома занимается Daniel Bergstrand, ранее работавший с Behemoth, Meshuggah, Dimmu Borgor, Soliwork и многими другими. Над обложкой к альбому работал Mattias Eriksson. Выход релиза намечен на октябрь 2011 года. Он будет доступен на обычном CD, дигипаке и виниле.
В своей стилистике команда ориентируется на классиков жанра (Black Sabbath и Deep Purple эпохи 80-х). В настоящее время вокалист Nils Patrik совмещает работу в Astral Doors, Wuthering Heights и в своём старом проекте, Lion’s Share. Уникальный стиль группе придают замечательный вокал Nils-а Patrikа Johansson-а и органная оранжировка Joakim-а Roberg-а.

Участники группы:
Members:
* Nils Patrik Johansson – vocals
* Joakim Roberg – organ
* Joachim Nordlund – guitar
* Johan Lindstedt – drums
* Mika Itranta – bass

Дискография:
2003 - Of The Son And The Father
2005 - Evil Is Forever
2006 - Astralism
2007 - New Revelation
2010 - Requiem Of Time
2011 - Jerusalem
2014 - Notes From The Shadows
--
Яндекс.Метрика
Рейтинг@Mail.ru