Пирамида / The Pyramid (Грегори Левассёр / Grégory Levasseur) [2014 г., Ужасы, WEB-DLRip] Dub [iTunes]

 

Создавать темы 05-Мар-2015 06:59

-Пирамида / The Pyramid-- Производство: США | Fox International Productions (FIP), Sahara Productions, Silvatar Media
Год выпуска: 2014 г.
Жанр: Ужасы
Продолжительность: 01:29:19
Мировая премьера: 4 декабря 2014
Российская премьера: 4 декабря 2014, «Двадцатый Век Фокс СНГ»
Перевод: Профессиональный (полное дублирование) [iTunes]
Режиссер: Грегори Левассёр / Grégory Levasseur-В ролях: Эшли Хиншоу, Дэнис О’Хэйр, Джеймс Бакли, Криста Никола, Амир Камиаб, Файкал Аттугуй, Филип Шелли, Аит Хаму Амин, Омар Бенбрахим, Джозеф Бедделем-Описание: Группа американских археологов раскапывает древнюю пирамиду, расположенную глубоко под египетской пустыней. Когда они начинают исследовать внутренние помещения пирамиды, то безнадежно теряются в ее бесконечных темных катакомбах.-
Качество видео: WEB-DLRip
Контейнер: AVI
Видео кодек: XviD
Аудио кодек: AC3
Видео: 720x304 (2.37:1), 23.976 fps, XviD build 50 ~1772 kbps avg, 0.34 bit/pixel
Аудио: 48 kHz, AC3 Dolby Digital, 3/2 (L,C,R,l,r) + LFE ch, ~384 kbps
Cубтитры: отсутствуют

Media Info

бщее
Полное имя : F:\Фильмы\Piramida.2014.D.WEB-DLRp.1400.avi
Формат : AVI
Формат/Информация : Audio Video Interleave
Размер файла : 1,35 Гбайт
Продолжительность : 1 ч. 29 м.
Общий поток : 2164 Кбит/сек
Программа кодирования : VirtualDubMod 1.5.10.3 | www.virtualdub-fr.org || (build 2550/release)
Библиотека кодирования : VirtualDubMod build 2550/release
Видео
Идентификатор : 0
Формат : MPEG-4 Visual
Профиль формата : Advanced [email protected]
Параметр BVOP формата : 2
Параметр QPel формата : Нет
Параметр GMC формата : Без точки перехода
Параметр матрицы формата : Default (MPEG)
Идентификатор кодека : XVID
Идентификатор кодека/Подсказка : XviD
Продолжительность : 1 ч. 29 м.
Битрейт : 1772 Кбит/сек
Ширина : 720 пикселей
Высота : 304 пикселя
Соотношение сторон : 2,35:1
Частота кадров : 23,976 кадра/сек
Цветовое пространство : YUV
Субдискретизация насыщенности : 4:2:0
Битовая глубина : 8 бит
Тип развёртки : Прогрессивная
Метод сжатия : С потерями
Бит/(Пиксели*Кадры) : 0.338
Размер потока : 1,11 Гбайт (82%)
Библиотека кодирования : XviD 1.2.1 (UTC 2008-12-04)
Аудио
Идентификатор : 1
Формат : AC-3
Формат/Информация : Audio Coding 3
Расширение режима : CM (complete main)
Параметр Endianness формата : Big
Идентификатор кодека : 2000
Продолжительность : 1 ч. 28 м.
Вид битрейта : Постоянный
Битрейт : 384 Кбит/сек
Каналы : 6 каналов
Расположение каналов : Front: L C R, Side: L R, LFE
Частота : 48,0 КГц
Битовая глубина : 16 бит
Метод сжатия : С потерями
Размер потока : 244 Мбайт (18%)
Выравнивание : Разделение по промежуткам
Продолжительность промежутка : 42 мс. (1,00 видеокадр)
Время предзагрузки промежутка : 500 мс.
Скриншоты
Яндекс.Метрика
Рейтинг@Mail.ru