(Hard Rock, Rock, Heavy Metal) Scorpions - Return To Forever (itunes Deluxe Edition) - 2015, (WEB) AAC (tracks), VBR 256 kbps

 

Создавать темы 04-Мар-2015 19:16

-Scorpions - Return To Forever (itunes Deluxe Edition)- Жанр: Hard Rock, Rock, Heavy Metal
Страна: Germany
Год издания: 2015
Издатель (лейбл): © + ® Sony Music Entertainment Germany GmbH
Аудио кодек: AAC
Тип рипа: tracks
Битрейт аудио: VBR 256 kbps
Продолжительность: 01:05:19
Вшитые тексты: не добавлены
Наличие сканов в содержимом раздачи: Artwork
-Треклист::
01. Going Out With A Bang (3:46)
02. We Built This House (3:53) Music Video
03. Rock My Car (3:20)
04. House Of Cards (5:05)
05. All For One (2:58)
06. Rock 'N' Roll Band (3:55)
07. Catch Your Luck And Play (3:33)
08. Rollin' Home (4:03)
09. Hard Rockin' The Place (4:06)
10. Eye Of The Storm (4:28)
11. The Scratch (3:41)
12. Gypsy Life (4:52)
13. The World We Used To Know (bonus deluxe edition) (3:51)
14. Dancing With The Moonlight (bonus deluxe edition) (3:42)
15. When The Truth Is A Lie (bonus deluxe edition) (4:27)
16. Who We Are (bonus deluxe edition) (2:33)
17. Delirious (bonus iTunes) (2:58)
Bonus Video:
«We Built This House» (Lyric Video)
«Return To Forever» (EPK, Track By Track Interview)
«Return To Forever» (Generic Interview)

Параметры Видео

«We Built This House» (Lyric Video)
Video: MPEG4 Video (H264) 640x480 (16:9) 25fps 1582kbps [V: Core Media Video [eng] (h264 constrained baseline L3.0, yuv420p, 640x480, 1582 kb/s)]
Audio: Audio: AAC 44100Hz stereo 248kbps [A: Core Media Audio [eng] (aac lc, 44100 Hz, stereo, 248 kb/s)]

MediaInfo

General
Complete name                            : D:\Osieron\Music\iTunes\iTunes Media\Music\Scorpions\Scorpions - Return To Forever (itunes Deluxe Edition) (2015)\18 We Built This House.m4v
Format                                   : MPEG-4
Codec ID                                 : M4V
File size                                : 52.5 MiB
Duration                                 : 3mn 55s
Overall bit rate                         : 1 871 Kbps
Movie name                               : We Built This House
Track name/Position                      : 18
Performer                                : Scorpions
Performer/Sorted by                      : Scorpions
Genre                                    : Rock
ContentType                              : Music Video
Recorded date                            : UTC 2015-02-20 08:00:00
Encoded date                             : UTC 2015-02-25 04:22:48
Tagged date                              : UTC 2015-02-25 04:22:48
Copyright                                : © (C) 2015 Sony Music Entertainment Germany GmbH
Cover                                    : Yes
Rating                                   : None
AppleStoreAccount                        : [email protected]
ownr                                     : Павел Курышкин
AppleStoreCatalogID                      : 950903803
AlbumTitleID                             : 602212
GenreID                                  : 1621
AppleStoreCountry                        : Unknown Country
PurchaseDate                             : 2015-02-25 20:43:11
Title/Sort                               : We Built This House
Vendor                                   : SonyBMG:vendor_id:886444990332_DEC691401573
ContentRating                            : ||0|
Video
ID                                       : 1
Format                                   : AVC
Format/Info                              : Advanced Video Codec
Format profile                           : [email protected]
Format settings, CABAC                   : No
Format settings, ReFrames                : 1 frame
Codec ID                                 : avc1
Codec ID/Info                            : Advanced Video Coding
Duration                                 : 3mn 55s
Bit rate                                 : 1 582 Kbps
Width                                    : 640 pixels
Height                                   : 480 pixels
Display aspect ratio                     : 16:9
Frame rate mode                          : Constant
Frame rate                               : 25.000 fps
Color space                              : YUV
Chroma subsampling                       : 4:2:0
Bit depth                                : 8 bits
Scan type                                : Progressive
Bits/(Pixel*Frame)                       : 0.206
Stream size                              : 44.4 MiB (85%)
Title                                    : Core Media Video
Language                                 : English
Encoded date                             : UTC 2015-02-25 04:22:48
Tagged date                              : UTC 2015-02-25 04:22:48
Color primaries                          : BT.601 NTSC
Transfer characteristics                 : BT.709
Matrix coefficients                      : BT.601
Color range                              : Limited
Audio
ID                                       : 2
Format                                   : AAC
Format/Info                              : Advanced Audio Codec
Format profile                           : LC
Codec ID                                 : 40
Duration                                 : 3mn 55s
Source duration                          : 3mn 55s
Bit rate mode                            : Constant
Bit rate                                 : 256 Kbps
Channel(s)                               : 2 channels
Channel positions                        : Front: L R
Sampling rate                            : 44.1 KHz
Compression mode                         : Lossy
Stream size                              : 6.99 MiB (13%)
Source stream size                       : 6.99 MiB (13%)
Title                                    : Core Media Audio
Language                                 : English
Encoded date                             : UTC 2015-02-25 04:22:48
Tagged date                              : UTC 2015-02-25 04:22:48
-«Return To Forever» (EPK, Track By Track Interview)
Video: MPEG4 Video (H264) 640x478 (1280:717) 25fps 1508kbps [V: Core Media Video [eng] (h264 constrained baseline L3.0, yuv420p, 640x478, 1508 kb/s)]
Audio: AAC 44100Hz stereo 252kbps [A: Core Media Audio [eng] (aac lc, 44100 Hz, stereo, 252 kb/s)]

MediaInfo

General
Complete name                            : D:\Osieron\Music\iTunes\iTunes Media\Music\Scorpions\Scorpions - Return To Forever (itunes Deluxe Edition) (2015)\19 Return to Forever - Track-by-Trac.m4v
Format                                   : MPEG-4
Codec ID                                 : M4V
File size                                : 288 MiB
Duration                                 : 22mn 47s
Overall bit rate                         : 1 769 Kbps
Movie name                               : Return to Forever - Track-by-Track-Interview
Track name/Position                      : 19
Performer                                : Scorpions
Performer/Sorted by                      : Scorpions
Genre                                    : Rock
ContentType                              : Music Video
Recorded date                            : UTC 2015-02-20 08:00:00
Encoded date                             : UTC 2015-02-25 09:11:05
Tagged date                              : UTC 2015-02-25 09:11:09
Copyright                                : © (C) 2015 Sony Music Entertainment Germany GmbH
Cover                                    : Yes
Rating                                   : None
AppleStoreAccount                        : [email protected]
ownr                                     : Павел Курышкин
AppleStoreCatalogID                      : 950903804
AlbumTitleID                             : 602212
GenreID                                  : 1621
AppleStoreCountry                        : Unknown Country
PurchaseDate                             : 2015-02-25 20:43:11
Title/Sort                               : Return to Forever - Track-by-Track-Interview
Vendor                                   : SonyBMG:vendor_id:886444990332_DEC691401574
ContentRating                            : ||0|
Video
ID                                       : 1
Format                                   : AVC
Format/Info                              : Advanced Video Codec
Format profile                           : [email protected]
Format settings, CABAC                   : No
Format settings, ReFrames                : 1 frame
Codec ID                                 : avc1
Codec ID/Info                            : Advanced Video Coding
Duration                                 : 22mn 47s
Bit rate                                 : 1 508 Kbps
Width                                    : 640 pixels
Height                                   : 478 pixels
Display aspect ratio                     : 16:9
Frame rate mode                          : Constant
Frame rate                               : 25.000 fps
Color space                              : YUV
Chroma subsampling                       : 4:2:0
Bit depth                                : 8 bits
Scan type                                : Progressive
Bits/(Pixel*Frame)                       : 0.197
Stream size                              : 246 MiB (85%)
Title                                    : Core Media Video
Language                                 : English
Encoded date                             : UTC 2015-02-25 09:11:05
Tagged date                              : UTC 2015-02-25 09:11:09
Color primaries                          : BT.601 NTSC
Transfer characteristics                 : BT.709
Matrix coefficients                      : BT.601
Color range                              : Limited
Audio
ID                                       : 2
Format                                   : AAC
Format/Info                              : Advanced Audio Codec
Format profile                           : LC
Codec ID                                 : 40
Duration                                 : 22mn 47s
Source duration                          : 22mn 47s
Bit rate mode                            : Constant
Bit rate                                 : 256 Kbps
Channel(s)                               : 2 channels
Channel positions                        : Front: L R
Sampling rate                            : 44.1 KHz
Compression mode                         : Lossy
Stream size                              : 41.1 MiB (14%)
Source stream size                       : 41.1 MiB (14%)
Title                                    : Core Media Audio
Language                                 : English
Encoded date                             : UTC 2015-02-25 09:11:05
Tagged date                              : UTC 2015-02-25 09:11:09
-«Return To Forever» (Generic Interview)
Video: MPEG4 Video (H264) 640x478 (1280:717) 25fps 1519kbps [V: Core Media Video [eng] (h264 constrained baseline L3.0, yuv420p, 640x478, 1519 kb/s)]
Audio: AAC 44100Hz stereo 250kbps [A: Core Media Audio [eng] (aac lc, 44100 Hz, stereo, 250 kb/s)]

MediaInfo

General
Complete name                            : D:\Osieron\Music\iTunes\iTunes Media\Music\Scorpions\Scorpions - Return To Forever (itunes Deluxe Edition) (2015)\20 Return to Forever - Generic Inter.m4v
Format                                   : MPEG-4
Codec ID                                 : M4V
File size                                : 402 MiB
Duration                                 : 31mn 36s
Overall bit rate                         : 1 777 Kbps
Movie name                               : Return to Forever - Generic Interview
Track name/Position                      : 20
Performer                                : Scorpions
Performer/Sorted by                      : Scorpions
Genre                                    : Rock
ContentType                              : Music Video
Recorded date                            : UTC 2015-02-20 08:00:00
Encoded date                             : UTC 2015-02-25 10:15:27
Tagged date                              : UTC 2015-02-25 10:15:29
Copyright                                : © (C) 2015 Sony Music Entertainment Germany GmbH
Cover                                    : Yes
Rating                                   : None
AppleStoreAccount                        : [email protected]
ownr                                     : Павел Курышкин
AppleStoreCatalogID                      : 950903805
AlbumTitleID                             : 602212
GenreID                                  : 1621
AppleStoreCountry                        : Unknown Country
PurchaseDate                             : 2015-02-25 20:43:11
Title/Sort                               : Return to Forever - Generic Interview
Vendor                                   : SonyBMG:vendor_id:886444990332_DEC691401578
ContentRating                            : ||0|
Video
ID                                       : 1
Format                                   : AVC
Format/Info                              : Advanced Video Codec
Format profile                           : [email protected]
Format settings, CABAC                   : No
Format settings, ReFrames                : 1 frame
Codec ID                                 : avc1
Codec ID/Info                            : Advanced Video Coding
Duration                                 : 31mn 36s
Bit rate                                 : 1 519 Kbps
Width                                    : 640 pixels
Height                                   : 478 pixels
Display aspect ratio                     : 16:9
Frame rate mode                          : Constant
Frame rate                               : 25.000 fps
Color space                              : YUV
Chroma subsampling                       : 4:2:0
Bit depth                                : 8 bits
Scan type                                : Progressive
Bits/(Pixel*Frame)                       : 0.199
Stream size                              : 344 MiB (85%)
Title                                    : Core Media Video
Language                                 : English
Encoded date                             : UTC 2015-02-25 10:15:27
Tagged date                              : UTC 2015-02-25 10:15:29
Color primaries                          : BT.601 NTSC
Transfer characteristics                 : BT.709
Matrix coefficients                      : BT.601
Color range                              : Limited
Audio
ID                                       : 2
Format                                   : AAC
Format/Info                              : Advanced Audio Codec
Format profile                           : LC
Codec ID                                 : 40
Duration                                 : 31mn 36s
Source duration                          : 31mn 36s
Bit rate mode                            : Constant
Bit rate                                 : 256 Kbps
Channel(s)                               : 2 channels
Channel positions                        : Front: L R
Sampling rate                            : 44.1 KHz
Compression mode                         : Lossy
Stream size                              : 56.7 MiB (14%)
Source stream size                       : 56.7 MiB (14%)
Title                                    : Core Media Audio
Language                                 : English
Encoded date                             : UTC 2015-02-25 10:15:27
Tagged date                              : UTC 2015-02-25 10:15:29
-
-

Об исполнителе (группе)

Состав
    Klaus Meine (Vocals)
    Rudolf Schenker (Guitars)
    Matthias Jabs (Guitars)
    James Kottak (Drums)
    Pawel Maciwoda (Bass)
-

Об альбоме (сборнике)

Немцы Scorpions, пожалуй, единственная группа, которая хоть как-то способна сравниться с The Rolling Stones — хотя бы в смысле долголетия (в этом году ей исполняется полвека), интернационального статуса, а также буржуазной респектабельности и признания власть имущими. Мастерски отыграв в 2011 году прощальный тур и выпустив альбом каверов и переписанных хитов «Comeblack», Scorpions невозмутимо вернулись сегодня с новым альбомом. В нем активно использовались наработки и демо прошлых десятилетий, но идеальное качество записи уравнивает их с новым материалом: отличить, какая песня когда написана, невозможно, как и обещал основатель и гитарист группы Рудольф Шенкер.
Двадцатый студийный альбом Scorpions продолжает курс «Sting In The Tail» (2010), взятый на неотразимый радиоформатный мелодический хард золотых времен коллектива рубежа 80-90-х годов. Это становится ясно с первой же ударной композиции «Going Out With a Bang», а подтверждается фирменной пауэр-балладой «House Of Cards», скроенной по лекалам «Wind Of Change», предвосхитившей падение Берлинской сцены и братание рокеров с Горбачевым. Две другие баллады «Rollin’ Home» и «Eye Of The Storm», надо сказать, не выглядят столь удачными. Пластинка же катится себе безукоризненным «Мерседесом», и единственная вещь, выпадающая из этого саунда — «The Scratch», припрятанная к концу и сыгранная в духе, скорее, южного рока. Привлекает внимание тот факт, что вокалист Клаус Майне в текст чуть ли не каждой песни вставляет слово «рок», но обмануть это может только тех из многочисленных поклонников группы, кто не слишком близко принимает к сердцу такое понятие, как рок-музыка.
-
Яндекс.Метрика
Рейтинг@Mail.ru