(Neoclassical Power Metal) Yngwie J. Malmsteen - Spellbound Live in Tampa (2CD) - 2014 [FLAC, image+.cue, lossless]

 

Создавать темы 03-Мар-2015 14:17

-Yngwie J. Malmsteen / Spellbound Live in Tampa (2CD)-- Год издания: 2014
Страна: Sweden - USA
Жанр: Neoclassical Power Metal
Продолжительность: 02:30:27-Лейбл издания: King Records
Тип альбома: Live
Страна-выпуска диска: Japan
Номер по каталогу: KICP 1704~5
Формат: FLAC
Битрейт аудио: lossless
Тип рипа: image+.cue
Наличие сканов в содержимом раздачи: да

И́нгви Йо́ханн Ма́льмстин — легендарный шведско-американский гитарист-виртуоз, мультиинструменталист и композитор, один из основоположников неоклассического металла.

Трэклист

CD 1 || 00:48:05

01. Rising Force (04:46)
02. Spellbound (03:45)
03. Demon Driver (02:56)
04. Repent (03:00)
05. Overture (00:51)
06. From A Thousand Cuts (01:46)
07. Arpeggios From Hell (00:50)
08. Crown Of Thorns (03:43)
09. Badinerie (01:56)
10. Concerto #4 (00:57)
11. Adagio (02:10)
12. Far Beyond The Sun (06:41)
13. Acoustic Paraphrase (02:39)
14. Dreaming (Tell Me) (03:44)
15. Gates Of Babylon (05:00)
16. Into Valhalla (03:29)

CD 2 || 01:42:23

01. Rise Up (04:38)
02. Let Sleeping Dogs Lie (06:18)
03. Red Devil (04:31)
04. Cadenza #1 (01:33)
05. Trilogy Suite (01:57)
06. Krakatau (00:37)
07. Cadenza #2 (03:41)
08. Blue (04:21)
09. Fugue (03:34)
10. Cadenza #3 / Finale (03:05)
11. Heaven Tonight (04:47)
12. Acoustic Cadenza (01:35)
13. Black Star (06:30)
14. I'll See The Light Tonight (04:12)
01. Rise Up (04:38)
02. Let Sleeping Dogs Lie (06:18)
03. Red Devil (04:31)
04. Cadenza #1 (01:33)
05. Trilogy Suite (01:57)
06. Krakatau (00:37)
07. Cadenza #2 (03:41)
08. Blue (04:21)
09. Fugue (03:34)
10. Cadenza #3 / Finale (03:05)
11. Heaven Tonight (04:47)
12. Acoustic Cadenza (01:35)
13. Black Star (06:30)
14. I'll See The Light Tonight (04:12)

Лог создания рипа

CD 1

Exact Audio Copy V1.0 beta 3 from 29. August 2011
EAC extraction logfile from 13. January 2015, 18:41
Yngwie J. Malmsteen / Spellbound - Live in Tampa CD1
Used drive  : PIONEER BD-RW   BDR-208D   Adapter: 4  ID: 0
Read mode               : Secure
Utilize accurate stream : Yes
Defeat audio cache      : Yes
Make use of C2 pointers : No
Read offset correction                      : 667
Overread into Lead-In and Lead-Out          : No
Fill up missing offset samples with silence : Yes
Delete leading and trailing silent blocks   : No
Null samples used in CRC calculations       : Yes
Used interface                              : Native Win32 interface for Win NT & 2000
Used output format : Internal WAV Routines
Sample format      : 44.100 Hz; 16 Bit; Stereo
TOC of the extracted CD
Track |   Start  |  Length  | Start sector | End sector
---------------------------------------------------------
1  |  0:00.00 |  4:45.27 |         0    |    21401
2  |  4:45.27 |  3:44.69 |     21402    |    38270
3  |  8:30.21 |  2:55.14 |     38271    |    51409
4  | 11:25.35 |  2:59.41 |     51410    |    64875
5  | 14:25.01 |  0:50.72 |     64876    |    68697
6  | 15:15.73 |  1:45.09 |     68698    |    76581
7  | 17:01.07 |  0:49.05 |     76582    |    80261
8  | 17:50.12 |  3:42.12 |     80262    |    96923
9  | 21:32.24 |  1:55.50 |     96924    |   105598
10  | 23:27.74 |  0:56.23 |    105599    |   109821
11  | 24:24.22 |  2:09.05 |    109822    |   119501
12  | 26:33.27 |  6:40.57 |    119502    |   149558
13  | 33:14.09 |  2:38.23 |    149559    |   161431
14  | 35:52.32 |  3:43.72 |    161432    |   178228
15  | 39:36.29 |  4:59.17 |    178229    |   200670
16  | 44:35.46 |  3:28.66 |    200671    |   216336
Range status and errors
Selected range
Filename C:\MTemp\Yngwie J. Malmsteen - 2014 - Spellbound - Live in Tampa\Yngwie J. Malmsteen - Spellbound - Live in Tampa CD1.wav
Peak level 96.8 %
Extraction speed 7.3 X
Range quality 100.0 %
Test CRC 51DA4913
Copy CRC 51DA4913
Copy OK
No errors occurred
AccurateRip summary
Track  1  not present in database
Track  2  not present in database
Track  3  not present in database
Track  4  not present in database
Track  5  not present in database
Track  6  not present in database
Track  7  not present in database
Track  8  not present in database
Track  9  not present in database
Track 10  not present in database
Track 11  not present in database
Track 12  not present in database
Track 13  not present in database
Track 14  not present in database
Track 15  not present in database
Track 16  not present in database
None of the tracks are present in the AccurateRip database
End of status report
---- CUETools DB Plugin V2.1.3
[CTDB TOCID: ws2Xtg6BI84ICeHRito8UUQuJEc-] found, Submit result: ws2Xtg6BI84ICeHRito8UUQuJEc- has been uploaded
[e1368999] (1/1) No match

CD 2

Exact Audio Copy V1.0 beta 3 from 29. August 2011
EAC extraction logfile from 13. January 2015, 19:04
Yngwie J. Malmsteen / Spellbound - Live in Tampa CD2
Used drive  : PIONEER BD-RW   BDR-208D   Adapter: 4  ID: 0
Read mode               : Secure
Utilize accurate stream : Yes
Defeat audio cache      : Yes
Make use of C2 pointers : No
Read offset correction                      : 667
Overread into Lead-In and Lead-Out          : No
Fill up missing offset samples with silence : Yes
Delete leading and trailing silent blocks   : No
Null samples used in CRC calculations       : Yes
Used interface                              : Native Win32 interface for Win NT & 2000
Used output format : Internal WAV Routines
Sample format      : 44.100 Hz; 16 Bit; Stereo
TOC of the extracted CD
Track |   Start  |  Length  | Start sector | End sector
---------------------------------------------------------
1  |  0:00.00 |  4:37.37 |         0    |    20811
2  |  4:37.37 |  6:17.03 |     20812    |    49089
3  | 10:54.40 |  4:30.51 |     49090    |    69390
4  | 15:25.16 |  1:32.60 |     69391    |    76350
5  | 16:58.01 |  1:56.65 |     76351    |    85115
6  | 18:54.66 |  0:36.03 |     85116    |    87818
7  | 19:30.69 |  3:40.30 |     87819    |   104348
8  | 23:11.24 |  4:20.07 |    104349    |   123855
9  | 27:31.31 |  3:33.11 |    123856    |   139841
10  | 31:04.42 |  3:04.72 |    139842    |   153713
11  | 34:09.39 |  4:46.38 |    153714    |   175201
12  | 38:56.02 |  1:34.04 |    175202    |   182255
13  | 40:30.06 |  6:29.46 |    182256    |   211476
14  | 46:59.52 |  4:11.40 |    211477    |   230341
Range status and errors
Selected range
Filename C:\MTemp\Yngwie J. Malmsteen - 2014 - Spellbound - Live in Tampa\Yngwie J. Malmsteen - Spellbound - Live in Tampa CD2.wav
Peak level 96.8 %
Extraction speed 7.4 X
Range quality 100.0 %
Test CRC BBB20A5D
Copy CRC BBB20A5D
Copy OK
No errors occurred
AccurateRip summary
Track  1  not present in database
Track  2  not present in database
Track  3  not present in database
Track  4  not present in database
Track  5  not present in database
Track  6  not present in database
Track  7  not present in database
Track  8  not present in database
Track  9  not present in database
Track 10  not present in database
Track 11  not present in database
Track 12  not present in database
Track 13  not present in database
Track 14  not present in database
None of the tracks are present in the AccurateRip database
End of status report
---- CUETools DB Plugin V2.1.3
[CTDB TOCID: 6_kGzRhIAkM9YdRRXGsHXYh6Pvo-] found, Submit result: 6_kGzRhIAkM9YdRRXGsHXYh6Pvo- has been uploaded
[9fc25bdf] (1/1) No match

Индексная карта (non-compilant .cue)

CD 1

REM GENRE Metal
REM DATE 2014
REM DISCID F80B4410
REM COMMENT ExactAudioCopy v1.0b3
PERFORMER "Yngwie J. Malmsteen"
TITLE "Spellbound - Live in Tampa (CD1)"
FILE "Yngwie J. Malmsteen - Spellbound - Live in Tampa CD1.flac" WAVE
TRACK 01 AUDIO
TITLE "Rising Force"
INDEX 01 00:00:00
TRACK 02 AUDIO
TITLE "Spellbound"
INDEX 01 04:45:27
TRACK 03 AUDIO
TITLE "Demon Driver"
INDEX 00 08:29:72
INDEX 01 08:30:21
TRACK 04 AUDIO
TITLE "Repent"
INDEX 00 11:25:21
INDEX 01 11:25:35
TRACK 05 AUDIO
TITLE "Overture"
INDEX 00 14:24:57
INDEX 01 14:25:01
TRACK 06 AUDIO
TITLE "From A Thousand Cuts"
INDEX 00 15:15:61
INDEX 01 15:15:73
TRACK 07 AUDIO
TITLE "Arpeggios From Hell"
INDEX 00 17:00:51
INDEX 01 17:01:07
TRACK 08 AUDIO
TITLE "Crown Of Thorns"
INDEX 00 17:49:69
INDEX 01 17:50:12
TRACK 09 AUDIO
TITLE "Badinerie"
INDEX 00 21:32:04
INDEX 01 21:32:24
TRACK 10 AUDIO
TITLE "Concerto #4"
INDEX 00 23:27:70
INDEX 01 23:27:74
TRACK 11 AUDIO
TITLE "Adagio"
INDEX 00 24:24:09
INDEX 01 24:24:22
TRACK 12 AUDIO
TITLE "Far Beyond The Sun"
INDEX 01 26:33:27
TRACK 13 AUDIO
TITLE "Acoustic Paraphrase"
INDEX 00 33:14:03
INDEX 01 33:14:09
TRACK 14 AUDIO
TITLE "Dreaming (Tell Me)"
INDEX 01 35:52:32
TRACK 15 AUDIO
TITLE "Gates Of Babylon"
INDEX 00 39:36:15
INDEX 01 39:36:29
TRACK 16 AUDIO
TITLE "Into Valhalla"
INDEX 01 44:35:46

CD 2

REM GENRE Metal
REM DATE 2014
REM DISCID B40BFF0E
REM COMMENT ExactAudioCopy v1.0b3
PERFORMER "Yngwie J. Malmsteen"
TITLE "Spellbound - Live in Tampa (CD2)"
FILE "Yngwie J. Malmsteen - Spellbound - Live in Tampa CD2.flac" WAVE
TRACK 01 AUDIO
TITLE "Rise Up"
INDEX 01 00:00:00
TRACK 02 AUDIO
TITLE "Let Sleeping Dogs Lie"
INDEX 00 04:37:20
INDEX 01 04:37:37
TRACK 03 AUDIO
TITLE "Red Devil"
INDEX 00 10:54:37
INDEX 01 10:54:40
TRACK 04 AUDIO
TITLE "Cadenza #1"
INDEX 00 15:24:70
INDEX 01 15:25:16
TRACK 05 AUDIO
TITLE "Trilogy Suite"
INDEX 00 16:57:69
INDEX 01 16:58:01
TRACK 06 AUDIO
TITLE "Krakatau"
INDEX 00 18:54:55
INDEX 01 18:54:66
TRACK 07 AUDIO
TITLE "Cadenza #2"
INDEX 00 19:30:64
INDEX 01 19:30:69
TRACK 08 AUDIO
TITLE "Blue"
INDEX 00 23:11:09
INDEX 01 23:11:24
TRACK 09 AUDIO
TITLE "Fugue"
INDEX 00 27:31:26
INDEX 01 27:31:31
TRACK 10 AUDIO
TITLE "Cadenza #3 / Finale"
INDEX 00 31:04:35
INDEX 01 31:04:42
TRACK 11 AUDIO
TITLE "Heaven Tonight"
INDEX 00 34:08:73
INDEX 01 34:09:39
TRACK 12 AUDIO
TITLE "Acoustic Cadenza"
INDEX 00 38:55:72
INDEX 01 38:56:02
TRACK 13 AUDIO
TITLE "Black Star"
INDEX 00 40:29:64
INDEX 01 40:30:06
TRACK 14 AUDIO
TITLE "I'll See The Light Tonight"
INDEX 00 46:59:47
INDEX 01 46:59:52

Скриншот спектра частот

--
Яндекс.Метрика
Рейтинг@Mail.ru