[ Сегодня на трекере фрилич! Идет свободное скачивание без начисления Download ]

Личный интерес (2015,Мелодрама) HDTVRip

 

Создавать темы 02-Мар-2015 20:36

-Личный интерес-Информация о фильме
Название: Личный интерес
Год выхода: 2015
Жанр: Мелодрама
Режиссер: Анатолий Григорьев
В ролях: Кирилл Жандаров, Галина Безрук, Алексей Нагрудный
О фильме:
Татьяна, совершив побег из колонии, поселяется в доме своей покойной бабушки в глухом селе Павловка. Там она встречает Максима, который приехал в деревню, чтобы отдохнуть от городской суеты. Между ними возникает взаимное чувство. Тем временем в Павловке появляется Олег — бывший жених Татьяны. Таня вынуждена рассказать Максиму всю правду о себе — о том, как она вместе с Олегом совершила ограбление, как взяла всю вину на себя и как сбежала из зоны. Максим заверяет любимую, что поможет ей и всегда будет рядом. Но не всё так просто: Максим не тот, за кого себя выдаёт…
Страна: Россия
Продолжительность: 01:27:27
Перевод: Не требуется
Семпл:скачать
Файл
Кодек: XviD
Качество: HDTVRip
Видео: 624x352 (16:9) (1.77:1), 25 fps, XviD build 73 ~1053 kbps avg, 0.19 bit/pixel
Звук: 48 kHz, MPEG Layer 3, 2 ch, ~128.00 kbps avg
Субтитры: Отсутствует

MI

General
Complete name : D:ТоррентМОИ РИПЫЛичный интересLichnyy.interes.2014.HDTVRip.от Шкипер.avi
Format : AVI
Format/Info : Audio Video Interleave
File size : 745 MiB
Duration : 1h 27mn
Overall bit rate : 1 191 Kbps
Writing application : VirtualDubMod 1.5.10.3 | www.virtualdub-fr.org || (build 2550/release)
Writing library : VirtualDubMod build 2550/release
Video
ID : 0
Format : MPEG-4 Visual
Format profile : Advanced [email protected]
Format settings, BVOP : 1
Format settings, QPel : No
Format settings, GMC : No warppoints
Format settings, Matrix : Default (MPEG)
Codec ID : XVID
Codec ID/Hint : XviD
Duration : 1h 27mn
Bit rate : 1 054 Kbps
Width : 624 pixels
Height : 352 pixels
Display aspect ratio : 16:9
Frame rate : 25.000 fps
Color space : YUV
Chroma subsampling : 4:2:0
Bit depth : 8 bits
Scan type : Progressive
Compression mode : Lossy
Bits/(Pixel*Frame) : 0.192
Stream size : 659 MiB (88%)
Writing library : XviD 73
Audio
ID : 1
Format : MPEG Audio
Format version : Version 1
Format profile : Layer 3
Mode : Joint stereo
Mode extension : MS Stereo
Codec ID : 55
Codec ID/Hint : MP3
Duration : 1h 27mn
Bit rate mode : Constant
Bit rate : 128 Kbps
Channel(s) : 2 channels
Sampling rate : 48.0 KHz
Compression mode : Lossy
Stream size : 80.1 MiB (11%)
Alignment : Aligned on interleaves
Interleave, duration : 40 ms (1.00 video frame)
Interleave, preload duratio : 504 ms
Writing library : LAME3.99r
Encoding settings : -m j -V 4 -q 2 -lowpass 17 -b 128

Скриншоты

Яндекс.Метрика
Рейтинг@Mail.ru