Моя Великая война. Дмитрий Ломоносов (Андрей Зайцев) [2013, Документальный, военный, биография, IPTVRip]

 

Создавать темы 04-Окт-2013 19:49

Новое
Моя Великая война. Дмитрий Ломоносов
Год выпуска: 2013
Страна: Россия
Жанр: Документальный, военный, биография
Продолжительность: 00:39:03
Перевод: Не требуется
Режиссер: Андрей Зайцев
Описание: Фильм построен на воспоминаниях Дмитрия Ломоносова, рядового связиста, кавалериста, бывшего военнопленного. Во время своего первого боя он ремонтировал оборвавшуюся связь, как позже выяснилось, прямо на минном поле. В 1944 году попал в плен: был тяжело ранен, контужен и подобран украинцем-власовцем. Дмитрий Борисович рассказывает об ужасах пребывания в плену, о том, как жестоко немцы относились именно к советским военнопленным. Вспоминает о "марше смерти", когда всех, кто находился в лагере, отправили пешком из Польши в Германию, и о том, что в начале пути их было две тысячи человек, а дошли лишь двести.
Качество: IPTVRip
Формат: AVI
Видео: XviD, 704x528, (1.33:1), 1608 kbps avg, 25 fps, 0.09 bit/pixel
Аудио: 48 kHz, MPEG Layer 3, 2 ch, ~128.00 kbps avg

MediaInfo

General
Complete name : C:\Users\Acer\Desktop\раздача\Моя великая война. Дмитрий Ломоносов.avi
Format : AVI
Format/Info : Audio Video Interleave
File size : 490 MiB
Duration : 39mn 2s
Overall bit rate : 1 754 Kbps
Writing application : Lavf54.59.107
Video
ID : 0
Format : MPEG-4 Visual
Format profile : Advanced [email protected]
Format settings, BVOP : 2
Format settings, QPel : No
Format settings, GMC : No warppoints
Format settings, Matrix : Default (MPEG)
Codec ID : XVID
Codec ID/Hint : XviD
Duration : 39mn 2s
Bit rate : 1 608 Kbps
Width : 704 pixels
Height : 528 pixels
Display aspect ratio : 4:3
Frame rate : 50.000 fps
Original frame rate : 25.000 fps
Color space : YUV
Chroma subsampling : 4:2:0
Bit depth : 8 bits
Scan type : Progressive
Compression mode : Lossy
Bits/(Pixel*Frame) : 0.087
Stream size : 449 MiB (92%)
Writing library : XviD 1.2.1 (UTC 2008-12-04)
Audio
ID : 1
Format : MPEG Audio
Format version : Version 1
Format profile : Layer 3
Codec ID : 55
Codec ID/Hint : MP3
Duration : 39mn 2s
Bit rate mode : Constant
Bit rate : 128 Kbps
Channel(s) : 2 channels
Sampling rate : 48.0 KHz
Compression mode : Lossy
Stream size : 35.7 MiB (7%)
Alignment : Aligned on interleaves
Interleave, duration : 24 ms (1.20 video frame)

Скриншоты

Яндекс.Метрика
Рейтинг@Mail.ru