Перси Джексон и Море чудовищ / Percy Jackson: Sea of Monsters (2013) BDRip [720p] [Line]

 

Создавать темы 23-Ноя-2013 10:43

-Перси Джексон и Море чудовищ / Percy Jackson: Sea of Monsters (2013) BDRip [720p] [Line]- Год выпуска: 2013
Производство: США, TCF Vancouver Productions
Жанр: Фэнтези, Приключения, Семейный
Перевод: Дублированный [чистый звук]
Субтитры: Вшитые отключаемые
Язык субтитров: Английский
Дата мировой премьеры: 7 августа 2013
Дата российской премьеры: 22 августа 2013, «Двадцатый Век Фокс СНГ»
Дата выхода DVD релиза: 12 декабря 2013, «Двадцатый Век Фокс СНГ»
Режиссер: Тор Фройденталь
Продюсер: Майкл Барнатан, Крис Коламбус, Карен Розенфельт
Актеры: Логан Лерман, Александра Даддарио, Дуглас Смит, Ливэн Рамбин, Брэндон Т. Джексон, Джейк Эйбел, Энтони Хэд, Стэнли Туччи, Коннор Крэш Данн, Палома Квиатковски
Описание фильма:Перси отправляется на поиски своего друга, сатира Гроувера, попавшего в ловушку к циклопу Полифему. На кону стоит не только сатир, но и весь «Лагерь полукровок»: кто-то отравил священное дерево Талии, а это значит, что защита лагеря вот-вот падет и уже ничто не сможет удержать чудовищ от вторжения. Исцелить дерево способно только мифическое Золотое руно, спрятанное на острове Полифема — и, чтобы добраться до него, необходимо переплыть Море Чудовищ и сразиться с его обитателями — Сциллой и Харибдой, сладкоголосыми сиренами и коварной волшебницей Цирцеей.
Продолжительность: 01:46:07
Качество видео: BDRip [720p]
Видеокодек: MPEG-4 AVC/H.264
Битрейт видео: ~4298 kbps
Размер кадра: 1280x544
Аудио 1: Русский: AC-3, 48.0 KHz, 6 ch, 384 Kbps, CBR
Аудио 2: Английский: DTS ES, 48.0 KHz, 6 ch, 1 510 Kbps, CBR
Сэмпл: Скачать

MediaInfo

Общее
Уникальный идентификатор : 220597981596620280367696023457464492453 (0xA5F5A0373C5DE3B59BA151A55CDEA1A5)
Полное имя : D:\Percy.Jackson.Sea.of.Monsters.2013.BDRip.720p.mkv
Формат : Matroska
Версия формата : Version 2
Размер файла : 4,59 Гбайт
Продолжительность : 1 ч. 46 м.
Общий поток : 6188 Кбит/сек
Дата кодирования : UTC 2013-11-23 06:41:20
Программа кодирования : mkvmerge v6.3.0 ('You can't stop me!') built on Jun 28 2013 20:09:41
Библиотека кодирования : libebml v1.3.0 + libmatroska v1.4.0
Видео
Идентификатор : 1
Формат : AVC
Формат/Информация : Advanced Video Codec
Профиль формата : [url=mailto:[email protected]][email protected][/url]
Параметр CABAC формата : Да
Параметр ReFrames формата : 12 кадров
Идентификатор кодека : V_MPEG4/ISO/AVC
Продолжительность : 1 ч. 46 м.
Битрейт : 4298 Кбит/сек
Ширина : 1280 пикселей
Высота : 544 пикселя
Соотношение сторон : 2,35:1
Режим частоты кадров : Постоянный
Частота кадров : 23,976 кадра/сек
Цветовое пространство : YUV
Субдискретизация насыщенности : 4:2:0
Битовая глубина : 8 бит
Тип развёртки : Прогрессивная
Бит/(Пиксели*Кадры) : 0.257
Размер потока : 3,09 Гбайт (67%)
Заголовок : Percy.Jackson.Sea.of.Monsters.2013.BluRay.720p.DTS.x264-CHD
Библиотека кодирования : x264 core 138 r2356 a1d3d17
Настройки программы : cabac=1 / ref=12 / deblock=1:-3:-3 / analyse=0x3:0x113 / me=umh / subme=10 / psy=1 / psy_rd=1.00:0.05 / mixed_ref=1 / me_range=32 / chroma_me=1 / trellis=2 / 8x8dct=1 / cqm=0 / deadzone=21,11 / fast_pskip=0 / chroma_qp_offset=-2 / threads=18 / lookahead_threads=1 / sliced_threads=0 / nr=0 / decimate=1 / interlaced=0 / bluray_compat=0 / constrained_intra=0 / bframes=4 / b_pyramid=2 / b_adapt=2 / b_bias=0 / direct=3 / weightb=1 / open_gop=0 / weightp=2 / keyint=250 / keyint_min=23 / scenecut=40 / intra_refresh=0 / rc=2pass / mbtree=0 / bitrate=4298 / ratetol=1.0 / qcomp=0.70 / qpmin=0 / qpmax=69 / qpstep=4 / cplxblur=20.0 / qblur=0.5 / ip_ratio=1.40 / pb_ratio=1.30 / aq=2:1.00
Язык : English
Default : Да
Forced : Нет
Аудио #1
Идентификатор : 2
Формат : AC-3
Формат/Информация : Audio Coding 3
Расширение режима : CM (complete main)
Параметр Endianness формата : Big
Идентификатор кодека : A_AC3
Продолжительность : 1 ч. 46 м.
Вид битрейта : Постоянный
Битрейт : 384 Кбит/сек
Каналы : 6 каналов
Расположение каналов : Front: L C R, Side: L R, LFE
Частота : 48,0 КГц
Битовая глубина : 16 бит
Метод сжатия : С потерями
Размер потока : 291 Мбайт (6%)
Язык : Russian
Default : Да
Forced : Да
Аудио #2
Идентификатор : 3
Формат : DTS
Формат/Информация : Digital Theater Systems
Профиль формата : ES
Режим : 16
Параметр Endianness формата : Big
Идентификатор кодека : A_DTS
Продолжительность : 1 ч. 46 м.
Вид битрейта : Постоянный
Битрейт : 1509 Кбит/сек
Каналы : 6 каналов
Расположение каналов : Front: L C R, Side: L R, LFE
Частота : 48,0 КГц
Битовая глубина : 24 бит
Метод сжатия : С потерями
Размер потока : 1,12 Гбайт (24%)
Заголовок : Percy.Jackson.Sea.of.Monsters.2013.BluRay.720p.DTS.x264-CHD
Язык : English
Default : Нет
Forced : Нет
Текст
Идентификатор : 4
Формат : UTF-8
Идентификатор кодека : S_TEXT/UTF8
Идентификатор кодека/Информация : UTF-8 Plain Text
Язык : English
Default : Нет
Forced : Нет
Меню
00:00:00.000 : en:00:00:00.000
00:04:05.454 : en:00:04:05.454
00:06:43.069 : en:00:06:43.069
00:09:31.696 : en:00:09:31.696
00:13:53.124 : en:00:13:53.124
00:19:17.156 : en:00:19:17.156
00:20:48.038 : en:00:20:48.038
00:22:10.496 : en:00:22:10.496
00:25:30.529 : en:00:25:30.529
00:28:22.826 : en:00:28:22.826
00:30:27.534 : en:00:30:27.534
00:33:19.998 : en:00:33:19.998
00:37:01.261 : en:00:37:01.261
00:39:49.596 : en:00:39:49.596
00:45:16.380 : en:00:45:16.380
00:48:50.177 : en:00:48:50.177
00:52:42.951 : en:00:52:42.951
00:56:35.100 : en:00:56:35.100
01:00:19.866 : en:01:00:19.866
01:03:35.895 : en:01:03:35.895
01:05:40.687 : en:01:05:40.687
01:10:41.696 : en:01:10:41.696
01:12:32.181 : en:01:12:32.181
01:16:52.817 : en:01:16:52.817
01:19:39.441 : en:01:19:39.441
01:23:01.768 : en:01:23:01.768
01:25:45.807 : en:01:25:45.807
01:29:54.264 : en:01:29:54.264
01:32:47.312 : en:01:32:47.312
01:34:25.243 : en:01:34:25.243
01:36:07.971 : en:01:36:07.971
01:37:39.187 : en:01:37:39.187
Скриншоты:
Яндекс.Метрика
Рейтинг@Mail.ru