[ Сегодня на трекере фрилич! Идет свободное скачивание без начисления Download ]

Вот так подружка / Una Donna per Amica (2014,комедия) HDRip-AVC | P | Чистый звук

 

Создавать темы 01-Мар-2015 12:33

-Вот так подружка / Una Donna per Amica -Информация о фильме
Название: Вот так подружка
Оригинальное название: Una Donna per Amica
Год выхода: 2014
Жанр: комедия
Режиссер: Джованни Веронези
В ролях: Фабио Де Луиджи, Летиция Каста, Моника Скаттини, Джеппи Куччиари, Вирджиния Раффаель, Валерия Соларино, Валентина Лодовини, Адриано Джаннини, Антония Лискова, Флавио Монтруккио
О фильме: «Возможна ли дружба между мужчиной и женщиной?»
Франческо и Клаудия, молодые, красивые и успешные, — друзья не разлей вода уже много лет. Между ними нет абсолютно никаких секретов. Они любят весело проводить время и дурачатся как малые дети. У Клаудии даже есть ключи от квартиры Франческо, куда она может заглянуть в любое время. Но однажды девушка знакомится с Джованни, и тот принимается настойчиво за ней ухаживать, а вскоре уже зовет замуж.

Страна: Италия
Студия: Фанданго, Warner Bros. Pictures Co.
Продолжительность: 01:28:20
Перевод: Профессиональное (многоголосое) Чистый звук
Файл
Кодек: MPEG-4 AVC (MKV)
Качество: HDRip-AVC
Видео: AVC, 1024x432, 2000 Kbps
Звук: Russian: AC3, 192 Kbps (2 ch) / Italian: AC3, 448 Kbps (6 ch)
Субтитры: English
Семпл

MediaInfo

General
Unique ID : 175638465105009375246041431420002132395 (0x8422BCE9309B3B33A4B0E1D4373C61AB)
Complete name : G:ДИСК 21.ФИЛЬМЫВот так подружка Una Donna per Amica (2014)Una.Donna.Per.Amica.2014.P.HDRip-AVC.mkv
Format : Matroska
Format version : Version 4 / Version 2
File size : 1.63 GiB
Duration : 1h 28mn
Overall bit rate : 2 642 Kbps
Encoded date : UTC 2015-03-01 05:50:55
Writing application : mkvmerge v7.5.0 ('Glass Culture') 64bit built on Jan 4 2015 16:48:44
Writing library : libebml v1.3.1 + libmatroska v1.4.2
DURATION : 01:22:46.628000000
NUMBER_OF_FRAMES : 1036
NUMBER_OF_BYTES : 35316
_STATISTICS_WRITING_APP : mkvmerge v7.5.0 ('Glass Culture') 64bit built on Jan 4 2015 16:48:44
_STATISTICS_WRITING_DATE_UTC : 2015-03-01 05:50:55
_STATISTICS_TAGS : BPS DURATION NUMBER_OF_FRAMES NUMBER_OF_BYTES
Video
ID : 1
Format : AVC
Format/Info : Advanced Video Codec
Format profile : [email protected]
Format settings, CABAC : Yes
Format settings, ReFrames : 10 frames
Codec ID : V_MPEG4/ISO/AVC
Duration : 1h 28mn
Bit rate : 2 000 Kbps
Width : 1 024 pixels
Height : 432 pixels
Display aspect ratio : 2.40:1
Frame rate mode : Constant
Frame rate : 23.976 fps
Color space : YUV
Chroma subsampling : 4:2:0
Bit depth : 8 bits
Scan type : Progressive
Bits/(Pixel*Frame) : 0.189
Stream size : 1.20 GiB (74%)
Title : Release by АРХАНГЕЛ
Writing library : x264 core 125 r2200 999b753
Encoding settings : cabac=1 / ref=10 / deblock=1:-3:-3 / analyse=0x3:0x113 / me=umh / subme=11 / psy=1 / psy_rd=1.00:0.00 / mixed_ref=1 / me_range=32 / chroma_me=1 / trellis=2 / 8x8dct=1 / cqm=0 / deadzone=21,11 / fast_pskip=0 / chroma_qp_offset=-2 / threads=6 / lookahead_threads=1 / sliced_threads=0 / nr=0 / decimate=1 / interlaced=0 / bluray_compat=0 / constrained_intra=0 / bframes=8 / b_pyramid=2 / b_adapt=2 / b_bias=0 / direct=3 / weightb=1 / open_gop=0 / weightp=2 / keyint=250 / keyint_min=23 / scenecut=40 / intra_refresh=0 / rc_lookahead=40 / rc=2pass / mbtree=1 / bitrate=2000 / ratetol=1.0 / qcomp=0.60 / qpmin=0 / qpmax=69 / qpstep=4 / cplxblur=20.0 / qblur=0.5 / ip_ratio=1.40 / aq=1:1.00
Language : English
Default : Yes
Forced : No
Audio #1
ID : 2
Format : AC-3
Format/Info : Audio Coding 3
Mode extension : CM (complete main)
Format settings, Endianness : Big
Codec ID : A_AC3
Duration : 1h 28mn
Bit rate mode : Constant
Bit rate : 192 Kbps
Channel(s) : 2 channels
Channel positions : Front: L R
Sampling rate : 48.0 KHz
Bit depth : 16 bits
Compression mode : Lossy
Stream size : 121 MiB (7%)
Title : MVO
Language : Russian
Default : Yes
Forced : No
Audio #2
ID : 3
Format : AC-3
Format/Info : Audio Coding 3
Mode extension : CM (complete main)
Format settings, Endianness : Big
Codec ID : A_AC3
Duration : 1h 28mn
Bit rate mode : Constant
Bit rate : 448 Kbps
Channel(s) : 6 channels
Channel positions : Front: L C R, Side: L R, LFE
Sampling rate : 48.0 KHz
Bit depth : 16 bits
Compression mode : Lossy
Stream size : 283 MiB (17%)
Language : Italian
Default : No
Forced : No
Text
ID : 4
Format : UTF-8
Codec ID : S_TEXT/UTF8
Codec ID/Info : UTF-8 Plain Text
Language : English
Default : No
Forced : No
Menu
00:00:00.000 : en:00:00:00.000
00:08:25.130 : en:00:08:25.130
00:19:01.974 : en:00:19:01.974
00:27:00.244 : en:00:27:00.244
00:36:17.675 : en:00:36:17.675
00:45:25.973 : en:00:45:25.973
00:55:25.405 : en:00:55:25.405
01:04:33.078 : en:01:04:33.078
01:14:01.896 : en:01:14:01.896
01:23:53.695 : en:01:23:53.695

Скриншоты

Яндекс.Метрика
Рейтинг@Mail.ru