К востоку от рая / East of Eden ( Элиа Казан)[1955, Драма, мелодрама, BDRip] by msltel | P, A

 

Создавать темы 23-Ноя-2013 06:16

Название: К востоку от рая
Оригинальное название: East of Eden
Год выпуска: 1955
Жанр: Драма, мелодрама
Выпущено: США, Werner Bros Pictures
Режиссер: Элиа Казан
В ролях: Джули Харрис, Джеймс Дин, Рэймонд Мэсси, Бёрл Айвз, Ричард Давалос, Джо Ван Флит, Альберт Деккер, Лоис Смит, Гарольд Гордон, Ник Дэннис, Абдулла Аббас, Роуз Аллен, Хосе Ариас, Барбара Бэксли, Джо Брукс, Тимоти Кэри, Джек Карр, Уитон Чэмберс, Лонни Чэпмен, Эдвард Кларк, Гарри Кординг, Роджер Крид, Рэй Дейв, Анна Дьюи, Лестер Дорр
О фильме: Эта картина по праву считается классикой Голливуда и главным фильмом Джеймса Дина — блестящего актёра, бунтаря и знаменитости своего времени. Его ещё до окончания съёмок уже прозвали вторым Брандо. «К востоку от рая» — экранизация знаменитого романа Стейнбека, романа о семейной драме юноши, который ревнует и страдает, видя как его отец отдает незаслуженное предпочтение другому своему сыну — любимцу. И чем сильнее его отчаяние, чем оно безнадёжней, тем сильнее желание обрести забытую родительскую любовь.
Качество: BDRip
Видео: XviD, 1505 Кбит/с, 720x288
Размер: 2.14 ГБ
Видео: XviD, 1505 Кбит/с, 720x288
Аудио 1: русский, 48 kHz, AC3, 2 ch, 192 kbps avg, [Профессиональный многоголосый]
Аудио 2: русский, 48 kHz, AC3, 6 ch, 448 kbps avg, [Авторский, Андрей Гаврилов]
Внешние файлы
Аудио: английский, 48 kHz, AC3, 6 ch, 448 kbps avg, [Оригинал]
Субтитры: русские (на места без перевода)
Субтитры: английские (для слабослышащих)
Исходник: v111o (HDTracker)
Сравнение с исходником

Награды

Оскар, 1956 год
Победитель (1):
Лучшая женская роль второго плана (Джо Ван Флит)
Номинации (3):
Лучшая мужская роль (Джеймс Дин)
Лучший режиссер (Элиа Казан)
Лучший адаптированный сценарий
Золотой глобус, 1956 год
Победитель (1):
Лучший фильм (драма)
Британская академия, 1956 год
Номинации (3):
Лучший фильм
Лучший иностранный актер (Джеймс Дин)
Самый многообещающий новичок (Джо Ван Флит)
Каннский кинофестиваль, 1955 год
Победитель (1):
Лучший драматический фильм
Номинации (1):
Золотая пальмовая ветвь

MediaInfo

Общее
Полное имя : E:VideoK.vostoku.ot.raja.1955.XviD.BDRipK.vostoku.ot.raja.1955.eng.SDH.srt
Размер файла : 231 Кбайт
Общее
Полное имя : E:VideoK.vostoku.ot.raja.1955.XviD.BDRipK.vostoku.ot.raja.1955.Original.eng.ac3
Формат : AC-3
Формат/Информация : Audio Coding 3
Размер файла : 377 Мбайт
Продолжительность : 1 ч. 57 м.
Режим общего битрейта : Постоянный
Общий поток : 448 Кбит/сек
Аудио
Формат : AC-3
Формат/Информация : Audio Coding 3
Расширение режима : CM (complete main)
Параметр Endianness формата : Big
Продолжительность : 1 ч. 57 м.
Вид битрейта : Постоянный
Битрейт : 448 Кбит/сек
Каналы : 6 каналов
Расположение каналов : Front: L C R, Side: L R, LFE
Частота : 48,0 КГц
Битовая глубина : 16 бит
Метод сжатия : С потерями
Размер потока : 377 Мбайт (100%)
Общее
Полное имя : E:VideoK.vostoku.ot.raja.1955.XviD.BDRipK.vostoku.ot.raja.1955.rus.srt
Формат : SubRip
Размер файла : 3,36 Кбайт
Текст
Формат : SubRip
Метод сжатия : Без потерь
Общее
Полное имя : E:VideoK.vostoku.ot.raja.1955.XviD.BDRipK.vostoku.ot.raja.1955.XviD.BDRip.avi
Формат : AVI
Формат/Информация : Audio Video Interleave
Размер файла : 1,78 Гбайт
Продолжительность : 1 ч. 57 м.
Общий поток : 2159 Кбит/сек
Программа кодирования : VirtualDubMod 1.5.10.2 (build 2540/release)
Библиотека кодирования : VirtualDubMod build 2540/release
Видео
Идентификатор : 0
Формат : MPEG-4 Visual
Профиль формата : Advanced [email protected]
Параметр BVOP формата : 1
Параметр QPel формата : Нет
Параметр GMC формата : Без точки перехода
Параметр матрицы формата : Default (H.263)
Режим смешивания : Сжатый битовый поток
Идентификатор кодека : XVID
Идентификатор кодека/Подсказка : XviD
Продолжительность : 1 ч. 57 м.
Битрейт : 1505 Кбит/сек
Ширина : 720 пикселей
Высота : 288 пикселей
Соотношение сторон : 2,500
Частота кадров : 23,976 кадра/сек
Цветовое пространство : YUV
Субдискретизация насыщенности : 4:2:0
Битовая глубина : 8 бит
Тип развёртки : Прогрессивная
Метод сжатия : С потерями
Бит/(Пиксели*Кадры) : 0.303
Размер потока : 1,24 Гбайт (70%)
Библиотека кодирования : XviD 1.2.1 (UTC 2008-12-04)
Аудио #1
Идентификатор : 1
Формат : AC-3
Формат/Информация : Audio Coding 3
Расширение режима : CM (complete main)
Параметр Endianness формата : Big
Идентификатор кодека : 2000
Продолжительность : 1 ч. 57 м.
Вид битрейта : Постоянный
Битрейт : 192 Кбит/сек
Каналы : 2 канала
Расположение каналов : Front: L R
Частота : 48,0 КГц
Битовая глубина : 16 бит
Метод сжатия : С потерями
Размер потока : 162 Мбайт (9%)
Выравнивание : Разделение по промежуткам
Продолжительность промежутка : 42 мс. (1,00 видеокадр)
Время предзагрузки промежутка : 500 мс.
Аудио #2
Идентификатор : 2
Формат : AC-3
Формат/Информация : Audio Coding 3
Расширение режима : CM (complete main)
Параметр Endianness формата : Big
Идентификатор кодека : 2000
Продолжительность : 1 ч. 57 м.
Вид битрейта : Постоянный
Битрейт : 448 Кбит/сек
Каналы : 6 каналов
Расположение каналов : Front: L C R, Side: L R, LFE
Частота : 48,0 КГц
Битовая глубина : 16 бит
Метод сжатия : С потерями
Размер потока : 377 Мбайт (21%)
Выравнивание : Разделение по промежуткам
Продолжительность промежутка : 42 мс. (1,00 видеокадр)
Время предзагрузки промежутка : 500 мс.

Скриншоты

Яндекс.Метрика
Рейтинг@Mail.ru