Громила / Big Driver (2014,триллер, драма) DVDRemux | L1

 

Создавать темы 28-Фев-2015 21:47

-Громила / Big Driver -Информация о фильме
Название: Громила
Оригинальное название: Big Driver
Год выхода: 2014
Жанр: триллер, драма
Режиссер: Микаэл Саломон
В ролях: Мария Белло, Олимпия Дукакис, Джоан Джетт, Энн Дауд, Уилл Харрис, Дженнифер Кидд, Тара Никодемо
О фильме:
Писательницу, сочиняющую детективы, зверски изнасиловал маньяк. Это страшное происшествие открыло ей такие стороны собственной натуры, о которых она и не подозревала…

Страна: США
Продолжительность: 01:27:25
Перевод: Любительский (одноголосый) [Павел Морозов aka PashaUp], перевод [Janetta]
Файл
Кодек: MPEG-2 Video (NTSC)
Качество: DVDRemux
Видео: 6050 kb/s, (16:9), 720x480
Звук:
Аудио#1: AC3, 448 kb/s, (6 ch) |Русский
Аудио#2: AC3, 448 kb/s, (6 ch) |Английский
Семпл

MI

General
Format : Matroska
Format version : Version 4 / Version 2
File size : 4.33 GiB
Duration : 1h 27mn
Overall bit rate mode : Variable
Overall bit rate : 7 087 Kbps
Encoded date : UTC 2015-02-28 11:19:24
Writing application : mkvmerge v7.3.0 ('Nouages') 64bit built on Oct 22 2014 18:53:34
Writing library : libebml v1.3.0 + libmatroska v1.4.1
DURATION : 01:27:25.408000000
NUMBER_OF_FRAMES : 163919
NUMBER_OF_BYTES : 293742848
_STATISTICS_WRITING_APP : mkvmerge v7.3.0 ('Nouages') 64bit built on Oct 22 2014 18:53:34
_STATISTICS_WRITING_DATE_UT : 2015-02-28 11:19:24
_STATISTICS_TAGS : BPS DURATION NUMBER_OF_FRAMES NUMBER_OF_BYTES
Video
ID : 1
Format : MPEG Video
Format version : Version 2
Format profile : [email protected]
Format settings, BVOP : Yes
Format settings, Matrix : Default
Format settings, GOP : M=3, N=12
Codec ID : V_MPEG2
Codec ID/Info : MPEG 1 or 2 Video
Bit rate mode : Variable
Bit rate : 6 050 Kbps
Maximum bit rate : 8 744 Kbps
Width : 720 pixels
Height : 480 pixels
Display aspect ratio : 16:9
Frame rate mode : Variable
Original frame rate : 29.970 fps
Standard : NTSC
Color space : YUV
Chroma subsampling : 4:2:0
Bit depth : 8 bits
Scan type : Progressive
Compression mode : Lossy
Time code of first frame : 00:00:00:00
Time code source : Group of pictures header
GOP, Open/Closed : Closed
Language : English
Default : No
Forced : No
DURATION : 01:27:23.938000000
NUMBER_OF_FRAMES : 125727
NUMBER_OF_BYTES : 4057189838
_STATISTICS_WRITING_APP : mkvmerge v7.3.0 ('Nouages') 64bit built on Oct 22 2014 18:53:34
_STATISTICS_WRITING_DATE_UT : 2015-02-28 11:19:24
_STATISTICS_TAGS : BPS DURATION NUMBER_OF_FRAMES NUMBER_OF_BYTES
Audio #1
ID : 2
Format : AC-3
Format/Info : Audio Coding 3
Mode extension : CM (complete main)
Format settings, Endianness : Big
Codec ID : A_AC3
Duration : 1h 27mn
Bit rate mode : Constant
Bit rate : 448 Kbps
Channel(s) : 6 channels
Channel positions : Front: L C R, Side: L R, LFE
Sampling rate : 48.0 KHz
Bit depth : 16 bits
Compression mode : Lossy
Stream size : 280 MiB (6%)
Title : L1
Language : Russian
Default : Yes
Forced : Yes
DURATION : 01:27:24.000000000
NUMBER_OF_FRAMES : 163875
NUMBER_OF_BYTES : 293664000
_STATISTICS_WRITING_APP : mkvmerge v7.3.0 ('Nouages') 64bit built on Oct 22 2014 18:53:34
_STATISTICS_WRITING_DATE_UT : 2015-02-28 11:19:24
_STATISTICS_TAGS : BPS DURATION NUMBER_OF_FRAMES NUMBER_OF_BYTES
Audio #2
ID : 3
Format : AC-3
Format/Info : Audio Coding 3
Mode extension : CM (complete main)
Format settings, Endianness : Big
Codec ID : A_AC3
Duration : 1h 27mn
Bit rate mode : Constant
Bit rate : 448 Kbps
Channel(s) : 6 channels
Channel positions : Front: L C R, Side: L R, LFE
Sampling rate : 48.0 KHz
Bit depth : 16 bits
Compression mode : Lossy
Delay relative to video : 31ms
Stream size : 280 MiB (6%)
Title : Surround 5.1
Language : English
Default : No
Forced : No
Menu
00:00:00.000 : en:Chapter 01
00:22:38.824 : en:Chapter 02
00:33:37.482 : en:Chapter 03
00:41:09.433 : en:Chapter 04
00:52:03.587 : en:Chapter 05
01:01:04.627 : en:Chapter 06
01:06:53.476 : en:Chapter 07
01:15:24.486 : en:Chapter 08

Скриншоты

Яндекс.Метрика
Рейтинг@Mail.ru