[ Сегодня на трекере фрилич! Идет свободное скачивание без начисления Download ]

Белая молния / White Lightning (Теренс Янг)[1973, Боевик, драма, криминал,DVDRip ] от NovaLan

 

Создавать темы 23-Ноя-2013 03:36

Страна: США
Производство: Levy-Gardner-Laven
Жанр: Боевик, драма, криминал
Год выпуска: 1973
Продолжительность: 01:36:58
Перевод: Профессиональный двухголосый, авторский (Махонько)
Оригинальная аудиодорожка: Английская
Режиссер: Теренс Янг
В ролях: Бёрт Рейнолдс, Дженнифер Биллингсли, Нед Битти, Бо Хопкинс, Мэтт Кларк, Дайэн Лэдд, Р.Джи. Армстронг, Конлэн Картер, Даббс Грир, Линкольн Демиан, Джон Стэдмен, Айрис Корн

Описание: Заключенный идет на сделку с властями, чтобы помочь разоблачить преступного шерифа, убившего его брата.
Исходник : DVD9 R2
Тип релиза: DVDRip
Формат: AVI
Видео: 720x400 (1.80:1), 23.976 fps, XviD ~1563 kbps avg, 0.23 bit/pixel
Аудио: #1: 48 kHz, AC3 2.0 ~192.00 kbps avg (RUS)
Аудио: #2: 48 kHz, AC3 2.0 ~192.00 kbps avg (RUS)
Аудио: #3: 48 kHz, AC3 2.0 ~192.00 kbps avg (ENG)

MediaInfo

Общее
Полное имя : D:1АААБелая молния.avi
Формат : AVI
Формат/Информация : Audio Video Interleave
Размер файла : 1,46 Гбайт
Продолжительность : 1 ч. 36 м.
Общий поток : 2160 Кбит/сек
Программа кодирования : VirtualDubMod 1.5.10.2 (build 2540/release)
Библиотека кодирования : VirtualDubMod build 2540/release
Видео
Идентификатор : 0
Формат : MPEG-4 Visual
Профиль формата : Advanced [email protected]
Параметр BVOP формата : 2
Параметр QPel формата : Нет
Параметр GMC формата : Без точки перехода
Параметр матрицы формата : Default (MPEG)
Режим смешивания : Сжатый битовый поток
Идентификатор кодека : XVID
Идентификатор кодека/Подсказка : XviD
Продолжительность : 1 ч. 36 м.
Битрейт : 1565 Кбит/сек
Ширина : 720 пикселей
Высота : 400 пикселей
Соотношение сторон : 16:9
Частота кадров : 23,976 кадра/сек
Цветовое пространство : YUV
Субдискретизация насыщенности : 4:2:0
Битовая глубина : 8 бит
Тип развёртки : Прогрессивная
Метод сжатия : С потерями
Бит/(Пиксели*Кадры) : 0.227
Размер потока : 1,06 Гбайт (72%)
Библиотека кодирования : XviD 1.2.1 (UTC 2008-12-04)
Аудио #1
Идентификатор : 1
Формат : AC-3
Формат/Информация : Audio Coding 3
Расширение режима : CM (complete main)
Параметр Endianness формата : Big
Идентификатор кодека : 2000
Продолжительность : 1 ч. 36 м.
Вид битрейта : Постоянный
Битрейт : 192 Кбит/сек
Каналы : 2 канала
Расположение каналов : Front: L R
Частота : 48,0 КГц
Битовая глубина : 16 бит
Метод сжатия : С потерями
Размер потока : 133 Мбайт (9%)
Выравнивание : Разделение по промежуткам
Продолжительность промежутка : 42 мс. (1,00 видеокадр)
Время предзагрузки промежутка : 500 мс.
Аудио #2
Идентификатор : 2
Формат : AC-3
Формат/Информация : Audio Coding 3
Расширение режима : CM (complete main)
Параметр Endianness формата : Big
Идентификатор кодека : 2000
Продолжительность : 1 ч. 36 м.
Вид битрейта : Постоянный
Битрейт : 192 Кбит/сек
Каналы : 2 канала
Расположение каналов : Front: L R
Частота : 48,0 КГц
Битовая глубина : 16 бит
Метод сжатия : С потерями
Размер потока : 133 Мбайт (9%)
Выравнивание : Разделение по промежуткам
Продолжительность промежутка : 42 мс. (1,00 видеокадр)
Время предзагрузки промежутка : 500 мс.
Аудио #3
Идентификатор : 3
Формат : AC-3
Формат/Информация : Audio Coding 3
Режим : Dual Mono
Расширение режима : CM (complete main)
Параметр Endianness формата : Big
Идентификатор кодека : 2000
Продолжительность : 1 ч. 36 м.
Вид битрейта : Постоянный
Битрейт : 192 Кбит/сек
Каналы : 2 канала
Расположение каналов : Front: L R
Частота : 48,0 КГц
Битовая глубина : 16 бит
Метод сжатия : С потерями
Размер потока : 133 Мбайт (9%)
Выравнивание : Разделение по промежуткам
Продолжительность промежутка : 42 мс. (1,00 видеокадр)
Время предзагрузки промежутка : 500 мс.

Скриншоты

Яндекс.Метрика
Рейтинг@Mail.ru