Жандарм женится / Le gendarme se marie (Жан Жиро)[1968, комедия,BDRip 720p] | D, P, A

 

Создавать темы 23-Ноя-2013 03:29

Информация о фильме
Название: Жандарм женится
Оригинальное название: Le gendarme se marie
Год выхода: 1968
Жанр: комедия
Режиссер: Жан Жиро
В ролях: Луи де Фюнес, Жан Лефевр, Женевьев Град, Кристиан Марен, Ив Венсан, Ги Гроссо, Мишель Модо, Маурицио Бонулья, Марио Давид, Клоди Жансак
Роли дублировали: Лев Лемке, Борис Аракелов, Любовь Виролайнен, Станислав Соколов, Игорь Дмитриев
Описание: Пробил долгожданный «Час Икс». На календаре у старшины жандармов первое июля, а это значит, что во Франции настало время всеобщих отпусков.
Толпы обезумевших от жажды развлечений туристов ринулись к морю, и наши старые знакомые — блюстители порядка из курортного Сен-Тропе — должны во что бы то ни стало, любой ценой сдержать бурный натиск отдыхающих.
И вот, за отчаянно-быструю езду по горным дорогам Крюшо арестовывает очаровательную Жозефу, которая оказывается вдовой полковника жандармерии.

Страна: Франция, Италия
Продолжительность: 01:29:18
Перевод #01: Профессиональный (Многоголосый, Закадровый) (Рен-ТВ)
Перевод #02: Профессиональный (Многоголосый, Закадровый) (НТВ+)
Перевод #03: Профессиональный (Многоголосый, Закадровый) (Останкино)
Перевод #04: Профессиональный (Многоголосый, Закадровый) (ОРТ)
Перевод #05: Профессиональный (Многоголосый, Закадровый) (Some Wax)
Перевод #06: Профессиональный (Дублированный) (Ленфильм)
Перевод #07: Авторский (Одноголосый, Закадровый) (Сергей Козлов)
Перевод #08: Авторский (Одноголосый, Закадровый) (Константин Дьяконов)
Перевод #09: Профессиональный (Многоголосый, Закадровый) (Украинский) (NTN)
Перевод #10: Французский (Оригинал)
Файл
Формат: MKV
Качество: BDRip 720p (Источник: Blu-ray Disc)
Видео: 1280x544 (2.35:1), 24.000 fps, 5075 kbps
Аудио #01: AC-3, 2 ch, 192 kbps (Многоголосый Рен-ТВ)
Аудио #02: AC-3, 2 ch, 192 kbps (Многоголосый НТВ+)
Аудио #03: AC-3, 2 ch, 192 kbps (Многоголосый Останкино)
Аудио #04: AC-3, 2 ch, 192 kbps (Многоголосый ОРТ)
Аудио #05: AC-3, 2 ch, 192 kbps (Многоголосый Some Wax)
Аудио #06: AC-3, 2 ch, 192 kbps (Дублированный Ленфильм)
Аудио #07: AC-3, 2 ch, 192 kbps (Одноголосый Сергей Козлов)
Аудио #08: AC-3, 2 ch, 192 kbps (Одноголосый Константин Дьяконов)
Аудио #09: AC-3, 2 ch, 192 kbps (Многоголосый Украинский)
Аудио #10: AC-3, 2 ch, 192 kbps (Французский Оригинал)
Субтитры: Русские (Полные)
Скачать: Семпл

MediaInfo

General
Unique ID : 251333207617034722414954562493506104134 (0xBD1503DAC418100FA7A3E394A24FAB46)
Complete name : Le.gendarme.se.marie.1968.BDRip.720p.mkv
Format : Matroska
Format version : Version 2
File size : 4.36 GiB
Duration : 1h 29mn
Overall bit rate : 6 996 Kbps
Encoded date : UTC 2013-11-23 00:42:46
Writing application : mkvmerge v5.6.0 ('Kenya Kane') built on May 27 2012 16:44:04
Writing library : libebml v1.2.3 + libmatroska v1.3.0
Video
ID : 1
Format : AVC
Format/Info : Advanced Video Codec
Format profile : [email protected]
Format settings, CABAC : Yes
Format settings, ReFrames : 8 frames
Codec ID : V_MPEG4/ISO/AVC
Duration : 1h 29mn
Bit rate : 5 075 Kbps
Width : 1 280 pixels
Height : 544 pixels
Display aspect ratio : 2.35:1
Frame rate mode : Constant
Frame rate : 24.000 fps
Color space : YUV
Chroma subsampling : 4:2:0
Bit depth : 8 bits
Scan type : Progressive
Bits/(Pixel*Frame) : 0.304
Stream size : 3.08 GiB (71%)
Title : Жандарм женится / Le gendarme se marie (1968)
Writing library : x264 core 130 r2273 b3065e6
Encoding settings : cabac=1 / ref=8 / deblock=1:-3:-3 / analyse=0x3:0x113 / me=umh / subme=11 / psy=1 / psy_rd=1.00:0.00 / mixed_ref=1 / me_range=32 / chroma_me=1 / trellis=2 / 8x8dct=1 / cqm=0 / deadzone=21,11 / fast_pskip=1 / chroma_qp_offset=-2 / threads=6 / lookahead_threads=1 / sliced_threads=0 / nr=0 / decimate=1 / interlaced=0 / bluray_compat=0 / constrained_intra=0 / bframes=6 / b_pyramid=2 / b_adapt=2 / b_bias=0 / direct=3 / weightb=1 / open_gop=0 / weightp=2 / keyint=240 / keyint_min=24 / scenecut=40 / intra_refresh=0 / rc=2pass / mbtree=0 / bitrate=5075 / ratetol=1.0 / qcomp=0.60 / qpmin=0 / qpmax=69 / qpstep=4 / cplxblur=20.0 / qblur=0.5 / ip_ratio=1.40 / pb_ratio=1.30 / aq=1:1.00
Language : English
Default : Yes
Forced : No
Color primaries : BT.709
Transfer characteristics : BT.709
Matrix coefficients : BT.709
Audio #1
ID : 2
Format : AC-3
Format/Info : Audio Coding 3
Mode extension : CM (complete main)
Format settings, Endianness : Big
Codec ID : A_AC3
Duration : 1h 29mn
Bit rate mode : Constant
Bit rate : 192 Kbps
Channel(s) : 2 channels
Channel positions : Front: L R
Sampling rate : 48.0 KHz
Bit depth : 16 bits
Compression mode : Lossy
Stream size : 123 MiB (3%)
Title : Многоголосый 2.0 (Рен-ТВ)
Language : Russian
Default : Yes
Forced : No
Audio #2
ID : 3
Format : AC-3
Format/Info : Audio Coding 3
Mode extension : CM (complete main)
Format settings, Endianness : Big
Codec ID : A_AC3
Duration : 1h 29mn
Bit rate mode : Constant
Bit rate : 192 Kbps
Channel(s) : 2 channels
Channel positions : Front: L R
Sampling rate : 48.0 KHz
Bit depth : 16 bits
Compression mode : Lossy
Stream size : 123 MiB (3%)
Title : Многоголосый 2.0 (НТВ+)
Language : Russian
Default : No
Forced : No
Audio #3
ID : 4
Format : AC-3
Format/Info : Audio Coding 3
Mode extension : CM (complete main)
Format settings, Endianness : Big
Codec ID : A_AC3
Duration : 1h 29mn
Bit rate mode : Constant
Bit rate : 192 Kbps
Channel(s) : 2 channels
Channel positions : Front: L R
Sampling rate : 48.0 KHz
Bit depth : 16 bits
Compression mode : Lossy
Stream size : 123 MiB (3%)
Title : Многоголосый 2.0 (Останкино)
Language : Russian
Default : No
Forced : No
Audio #4
ID : 5
Format : AC-3
Format/Info : Audio Coding 3
Mode extension : CM (complete main)
Format settings, Endianness : Big
Codec ID : A_AC3
Duration : 1h 29mn
Bit rate mode : Constant
Bit rate : 192 Kbps
Channel(s) : 2 channels
Channel positions : Front: L R
Sampling rate : 48.0 KHz
Bit depth : 16 bits
Compression mode : Lossy
Stream size : 123 MiB (3%)
Title : Многоголосый 2.0 (ОРТ)
Language : Russian
Default : No
Forced : No
Audio #5
ID : 6
Format : AC-3
Format/Info : Audio Coding 3
Mode extension : CM (complete main)
Format settings, Endianness : Big
Codec ID : A_AC3
Duration : 1h 29mn
Bit rate mode : Constant
Bit rate : 192 Kbps
Channel(s) : 2 channels
Channel positions : Front: L R
Sampling rate : 48.0 KHz
Bit depth : 16 bits
Compression mode : Lossy
Stream size : 123 MiB (3%)
Title : Многоголосый 2.0 (Some Wax)
Language : Russian
Default : No
Forced : No
Audio #6
ID : 7
Format : AC-3
Format/Info : Audio Coding 3
Mode extension : CM (complete main)
Format settings, Endianness : Big
Codec ID : A_AC3
Duration : 1h 29mn
Bit rate mode : Constant
Bit rate : 192 Kbps
Channel(s) : 2 channels
Channel positions : Front: L R
Sampling rate : 48.0 KHz
Bit depth : 16 bits
Compression mode : Lossy
Stream size : 123 MiB (3%)
Title : Дублированный 2.0 (Ленфильм)
Language : Russian
Default : No
Forced : No
Audio #7
ID : 8
Format : AC-3
Format/Info : Audio Coding 3
Mode extension : CM (complete main)
Format settings, Endianness : Big
Codec ID : A_AC3
Duration : 1h 29mn
Bit rate mode : Constant
Bit rate : 192 Kbps
Channel(s) : 2 channels
Channel positions : Front: L R
Sampling rate : 48.0 KHz
Bit depth : 16 bits
Compression mode : Lossy
Stream size : 123 MiB (3%)
Title : Одноголосый 2.0 (Сергей Козлов)
Language : Russian
Default : No
Forced : No
Audio #8
ID : 9
Format : AC-3
Format/Info : Audio Coding 3
Mode extension : CM (complete main)
Format settings, Endianness : Big
Codec ID : A_AC3
Duration : 1h 29mn
Bit rate mode : Constant
Bit rate : 192 Kbps
Channel(s) : 2 channels
Channel positions : Front: L R
Sampling rate : 48.0 KHz
Bit depth : 16 bits
Compression mode : Lossy
Stream size : 123 MiB (3%)
Title : Одноголосый 2.0 (Константин Дьяконов)
Language : Russian
Default : No
Forced : No
Audio #9
ID : 10
Format : AC-3
Format/Info : Audio Coding 3
Mode extension : CM (complete main)
Format settings, Endianness : Big
Codec ID : A_AC3
Duration : 1h 29mn
Bit rate mode : Constant
Bit rate : 192 Kbps
Channel(s) : 2 channels
Channel positions : Front: L R
Sampling rate : 48.0 KHz
Bit depth : 16 bits
Compression mode : Lossy
Stream size : 123 MiB (3%)
Title : Многоголосый 2.0 (Украинский) (NTN)
Language : Ukrainian
Default : No
Forced : No
Audio #10
ID : 11
Format : AC-3
Format/Info : Audio Coding 3
Mode extension : CM (complete main)
Format settings, Endianness : Big
Codec ID : A_AC3
Duration : 1h 29mn
Bit rate mode : Constant
Bit rate : 192 Kbps
Channel(s) : 2 channels
Channel positions : Front: L R
Sampling rate : 48.0 KHz
Bit depth : 16 bits
Compression mode : Lossy
Stream size : 123 MiB (3%)
Title : Французский 2.0 (Оригинал)
Language : French
Default : No
Forced : No
Text
ID : 12
Format : UTF-8
Codec ID : S_TEXT/UTF8
Codec ID/Info : UTF-8 Plain Text
Title : Русские (Полные)
Language : Russian
Default : No
Forced : No
Яндекс.Метрика
Рейтинг@Mail.ru