Дурацкое дело нехитрое / Kraftidioten (2014,триллер, криминал, комедия) WEB-DLRip 720p

 

Создавать темы 26-Фев-2015 22:04

-Дурацкое дело нехитрое / Kraftidioten / In order of disappearance (2014) WEB-DLRip 720p- Информация о фильме
Название: Дурацкое дело нехитрое
Оригинальное название: Kraftidioten
Год выхода: 2014
Жанр: триллер, криминал, комедия
Режиссер: Ганс Петтер Моланд / Hans Petter Moland
В ролях: Стеллан Скарсгард, Биргитта Йорт Сёренсен, Тобиас Зантельман, Кристофер Хивью, Бруно Ганц, Якоб Офтебро, Пол Сверре Валхейм Хаген, Андерс Баасмо Кристиансен, Сергей Трифунович, Петер Андерссон
О фильме: Норвегия. Зима. Трудолюбивый Нилс управляет мощным плужным снегоочистителем, который очищает дороги и горные проходы негостеприимного обледенелого ландшафта местности, где он сам живёт. Совсем недавно он был признан жителем года за свои старания, а теперь получает известие о том, что его сын погиб в результате передозировки героина. Отказываясь верить в правдивость официальной версии смерти своего сына, он начинает тайное расследование с целью найти предполагаемых убийц парня. Однако дальнейшие события разворачиваются самым непредсказуемым образом, и ему приходится стать таинственным героем, внушающим страх в преступном мире.

Производство: Норвегия, Дания, Швеция / Film i Väst, Paradox, Paradox Film 2
Продолжительность: 01:51:46
Перевод: Профессиональный (многоголосый, закадровый)
Навигация по главам: Есть
Файл
Качество: WEB-DLRip 720p | Исходник: WEB-DL 1080p
Формат: MKV
Видео: H264, 1280x544 (2.35:1), 25.000 fps, ~1835 kbps, 0.105 bit/pixel, crf
Аудио: AC3 Dolby Digital 2.0 (stereo), 48.0 kHz, 224 kbps
Семпл

MediaInfo

Общее
Уникальный идентификатор : 238793644898902268221888826366821174047 (0xB3A5FBAE03FC268BA7E4AA29BC348B1F)
Полное имя : Duratskoe.Delo.Nehitroe.2014.WEB-DLRip.720p.mkv
Формат : Matroska
Версия формата : Version 4 / Version 2
Размер файла : 1,64 Гбайт
Продолжительность : 1 ч. 51 м.
Общий поток : 2101 Кбит/сек
Название фильма : Kraftidioten / In order of disappearance (2014) WEB-DLRip 720p
Дата кодирования : UTC 2015-02-24 21:35:42
Программа кодирования : mkvmerge v7.6.0 ('Garden of Dreams') 64bit built on Feb 8 2015 13:04:34
Библиотека кодирования : libebml v1.3.1 + libmatroska v1.4.2
Attachements : poster.jpg
Видео
Идентификатор : 1
Формат : AVC
Формат/Информация : Advanced Video Codec
Профиль формата : [email protected]
Параметр CABAC формата : Да
Параметр ReFrames формата : 9 кадров
Идентификатор кодека : V_MPEG4/ISO/AVC
Продолжительность : 1 ч. 51 м.
Битрейт : 1835 Кбит/сек
Ширина : 1280 пикселей
Высота : 544 пикселя
Соотношение сторон : 2,35:1
Режим частоты кадров : Постоянный
Частота кадров : 25,000 кадров/сек
Цветовое пространство : YUV
Субдискретизация насыщенности : 4:2:0
Битовая глубина : 8 бит
Тип развёртки : Прогрессивная
Бит/(Пиксели*Кадры) : 0.105
Размер потока : 1,43 Гбайт (87%)
Библиотека кодирования : x264 core 144 r2525 40bb568
Настройки программы : cabac=1 / ref=9 / deblock=1:-3:-3 / analyse=0x3:0x133 / me=umh / subme=11 / psy=1 / psy_rd=1.00:0.15 / mixed_ref=1 / me_range=48 / chroma_me=1 / trellis=2 / 8x8dct=1 / cqm=0 / deadzone=21,11 / fast_pskip=1 / chroma_qp_offset=-3 / threads=12 / lookahead_threads=2 / sliced_threads=0 / nr=0 / decimate=1 / interlaced=0 / bluray_compat=0 / constrained_intra=0 / bframes=8 / b_pyramid=2 / b_adapt=2 / b_bias=0 / direct=3 / weightb=1 / open_gop=0 / weightp=2 / keyint=250 / keyint_min=25 / scenecut=40 / intra_refresh=0 / rc_lookahead=60 / rc=crf / mbtree=1 / crf=17.0 / qcomp=0.60 / qpmin=0 / qpmax=69 / qpstep=4 / vbv_maxrate=62500 / vbv_bufsize=78125 / crf_max=0.0 / nal_hrd=none / filler=0 / ip_ratio=1.40 / aq=1:1.00 / zones=160158,167673,q=34
Язык : Norwegian
Default : Да
Forced : Нет
Основные цвета : BT.709
Характеристики трансфера : BT.709
Коэффициенты матрицы : BT.709
colour_range : Limited
Аудио
Идентификатор : 2
Формат : AC-3
Формат/Информация : Audio Coding 3
Расширение режима : CM (complete main)
Параметр Endianness формата : Big
Идентификатор кодека : A_AC3
Продолжительность : 1 ч. 51 м.
Вид битрейта : Постоянный
Битрейт : 224 Кбит/сек
Каналы : 2 канала
Расположение каналов : Front: L R
Частота : 48,0 КГц
Битовая глубина : 16 бит
Метод сжатия : С потерями
Размер потока : 179 Мбайт (11%)
Заголовок : MVO
Язык : Russian
Default : Да
Forced : Нет
Меню
00:00:00.000 : en:Kapittel 1
00:15:00.000 : en:Kapittel 2
00:30:00.000 : en:Kapittel 3
00:45:00.000 : en:Kapittel 4
01:00:00.000 : en:Kapittel 5
01:15:00.000 : en:Kapittel 6
01:30:00.000 : en:Kapittel 7
01:45:00.000 : en:Kapittel 8

[email protected]

x264 [info]: frame I:1214 Avg QP: 12.79 size: 98137
x264 [info]: frame P:42723 Avg QP: 16.67 size: 20061
x264 [info]: frame B:123737 Avg QP: 19.12 size: 4814
x264 [info]: consecutive B-frames: 1.5% 3.3% 3.8% 78.8% 4.0% 5.1% 0.7% 1.7% 1.0%
x264 [info]: mb I I16..4: 11.3% 60.0% 28.7%
x264 [info]: mb P I16..4: 0.7% 5.2% 0.7% P16..4: 31.0% 33.6% 11.6% 2.7% 0.5% skip:14.0%
x264 [info]: mb B I16..4: 0.1% 0.7% 0.1% B16..8: 32.2% 13.1% 1.4% direct: 3.3% skip:49.3% L0:40.6% L1:49.7% BI: 9.7%
x264 [info]: 8x8 transform intra:75.4% inter:53.3%
x264 [info]: direct mvs spatial: 99.2% temporal: 0.8%
x264 [info]: coded y,uvDC,uvAC intra: 83.9% 72.5% 45.1% inter: 12.5% 11.1% 1.3%
x264 [info]: i16 v,h,dc,p: 25% 14% 11% 50%
x264 [info]: i8 v,h,dc,ddl,ddr,vr,hd,vl,hu: 11% 11% 8% 8% 11% 11% 12% 12% 15%
x264 [info]: i4 v,h,dc,ddl,ddr,vr,hd,vl,hu: 15% 13% 8% 7% 12% 11% 12% 9% 12%
x264 [info]: i8c dc,h,v,p: 37% 31% 19% 14%
x264 [info]: Weighted P-Frames: Y:2.9% UV:0.9%
x264 [info]: ref P L0: 52.2% 7.4% 18.2% 6.5% 5.1% 3.7% 3.2% 1.8% 1.8% 0.1% 0.0%
x264 [info]: ref B L0: 80.0% 10.1% 4.3% 2.0% 1.4% 1.2% 0.7% 0.3%
x264 [info]: ref B L1: 95.6% 4.4%
x264 [info]: kb/s:1874.96

Скриншоты:

Яндекс.Метрика
Рейтинг@Mail.ru