[ Сегодня на трекере фрилич! Идет свободное скачивание без начисления Download ]

(Rock) VA - Легенды русского рока (6CD Box Set) - 1996 [FLAC, image+.cue, lossless]

 

Создавать темы 26-Фев-2015 19:18

-Легенды русского рока (6CD Box Set)-- Год издания: 1996
Страна: Россия
Жанр: Rock
Продолжительность: 07:16:07-Лейбл издания: Moroz Records
Тип альбома: Compilation
Страна-выпуска диска: Россия
Формат: FLAC
Битрейт аудио: lossless
Тип рипа: image+.cue
Наличие сканов в содержимом раздачи: да

CD I | Кино - Легенды русского рока / 01:16:49

Лейбл издания Moroz Records || Номер по каталогу: MR 96070 CD
01. Алюминевые огурцы (02:58)
02. Время есть, а денег нет (04:09)
03. Солнечные дни (03:14)
04. Бездельник (03:15)
05. Мои друзья (04:27)
06. Транквилизатор (05:35)
07. Прогулка романтика (03:29)
08. Мама анархия (02:46)
09. Фильмы (04:56)
10. Хочу перемен (04:56)
11. Электричка (04:49)
12. Троллейбус (02:56)
13. Последний герой (03:09)
14. Группа крови (04:48)
15. Звезда по имени Солнце (03:46)
16. Бошетунмай (04:10)
17. Пачка сигарет (04:30)
18. Следи за собой (05:00)
19. Легенда (04:07)

Лог создания рипа

Exact Audio Copy V1.0 beta 3 from 29. August 2011
EAC extraction logfile from 18. December 2012, 20:01
Кино / Легенды русского рока
Used drive  : ASUS    DRW-24B3LT   Adapter: 2  ID: 0
Read mode               : Secure
Utilize accurate stream : Yes
Defeat audio cache      : Yes
Make use of C2 pointers : No
Read offset correction                      : 6
Overread into Lead-In and Lead-Out          : No
Fill up missing offset samples with silence : Yes
Delete leading and trailing silent blocks   : No
Null samples used in CRC calculations       : Yes
Used interface                              : Native Win32 interface for Win NT & 2000
Used output format : Internal WAV Routines
Sample format      : 44.100 Hz; 16 Bit; Stereo
TOC of the extracted CD
Track |   Start  |  Length  | Start sector | End sector
---------------------------------------------------------
1  |  0:00.00 |  2:57.12 |         0    |    13286
2  |  2:57.12 |  4:08.55 |     13287    |    31941
3  |  7:05.67 |  3:13.10 |     31942    |    46426
4  | 10:19.02 |  3:14.15 |     46427    |    60991
5  | 13:33.17 |  4:26.08 |     60992    |    80949
6  | 17:59.25 |  5:34.10 |     80950    |   106009
7  | 23:33.35 |  3:28.30 |    106010    |   121639
8  | 27:01.65 |  2:45.27 |    121640    |   134041
9  | 29:47.17 |  4:55.25 |    134042    |   156191
10  | 34:42.42 |  4:55.10 |    156192    |   178326
11  | 39:37.52 |  4:48.60 |    178327    |   199986
12  | 44:26.37 |  2:55.03 |    199987    |   213114
13  | 47:21.40 |  3:08.02 |    213115    |   227216
14  | 50:29.42 |  4:47.13 |    227217    |   248754
15  | 55:16.55 |  3:45.57 |    248755    |   265686
16  | 59:02.37 |  4:09.63 |    265687    |   284424
17  | 63:12.25 |  4:29.30 |    284425    |   304629
18  | 67:41.55 |  4:59.67 |    304630    |   327121
19  | 72:41.47 |  4:06.38 |    327122    |   345609
Range status and errors
Selected range
Filename D:\Osieron\Desktop\Test&Copy\Кино - Легенды русского рока.wav
Peak level 98.7 %
Extraction speed 10.4 X
Range quality 100.0 %
Test CRC 890BCE97
Copy CRC 890BCE97
Copy OK
No errors occurred
AccurateRip summary
Track  1  accurately ripped (confidence 3)  [79AA1714]  (AR v1)
Track  2  accurately ripped (confidence 3)  [61ED9C54]  (AR v1)
Track  3  accurately ripped (confidence 3)  [2EC68416]  (AR v1)
Track  4  accurately ripped (confidence 3)  [656D36BC]  (AR v1)
Track  5  accurately ripped (confidence 3)  [30ACC5F3]  (AR v1)
Track  6  accurately ripped (confidence 3)  [89949907]  (AR v1)
Track  7  accurately ripped (confidence 3)  [AAF56733]  (AR v1)
Track  8  accurately ripped (confidence 3)  [7ECE227B]  (AR v1)
Track  9  accurately ripped (confidence 3)  [42EBB22F]  (AR v1)
Track 10  accurately ripped (confidence 3)  [5E1461B1]  (AR v1)
Track 11  accurately ripped (confidence 3)  [DD1B9D89]  (AR v1)
Track 12  accurately ripped (confidence 3)  [B1D56670]  (AR v1)
Track 13  accurately ripped (confidence 3)  [DF1B4925]  (AR v1)
Track 14  accurately ripped (confidence 3)  [5D197708]  (AR v1)
Track 15  accurately ripped (confidence 3)  [CE3414F2]  (AR v1)
Track 16  accurately ripped (confidence 3)  [356EC758]  (AR v1)
Track 17  accurately ripped (confidence 3)  [E57F8EEC]  (AR v1)
Track 18  accurately ripped (confidence 3)  [1386B487]  (AR v1)
Track 19  accurately ripped (confidence 2)  [3DE80DEA]  (AR v1)
All tracks accurately ripped
End of status report

Индексная карта (non-compilant .cue)

REM GENRE "Rock"
REM DATE 1996
REM DISCID 16120013
REM COMMENT "ExactAudioCopy v1.0b3"
PERFORMER "Кино"
TITLE "Легенды русского рока"
FILE "Кино - Легенды русского рока.flac" WAVE
TRACK 01 AUDIO
TITLE "Алюминевые огурцы"
PERFORMER "Кино"
INDEX 01 00:00:00
TRACK 02 AUDIO
TITLE "Время есть, а денег нет"
PERFORMER "Кино"
INDEX 00 02:55:02
INDEX 01 02:57:12
TRACK 03 AUDIO
TITLE "Солнечные дни"
PERFORMER "Кино"
INDEX 00 07:04:02
INDEX 01 07:05:67
TRACK 04 AUDIO
TITLE "Бездельник"
PERFORMER "Кино"
INDEX 00 10:17:27
INDEX 01 10:19:02
TRACK 05 AUDIO
TITLE "Мои друзья"
PERFORMER "Кино"
INDEX 00 13:31:35
INDEX 01 13:33:17
TRACK 06 AUDIO
TITLE "Транквилизатор"
PERFORMER "Кино"
INDEX 00 17:57:55
INDEX 01 17:59:25
TRACK 07 AUDIO
TITLE "Прогулка романтика"
PERFORMER "Кино"
INDEX 00 23:31:42
INDEX 01 23:33:35
TRACK 08 AUDIO
TITLE "Мама анархия"
PERFORMER "Кино"
INDEX 00 26:59:57
INDEX 01 27:01:65
TRACK 09 AUDIO
TITLE "Фильмы"
PERFORMER "Кино"
INDEX 00 29:45:35
INDEX 01 29:47:17
TRACK 10 AUDIO
TITLE "Хочу перемен"
PERFORMER "Кино"
INDEX 00 34:40:60
INDEX 01 34:42:42
TRACK 11 AUDIO
TITLE "Электричка"
PERFORMER "Кино"
INDEX 00 39:35:65
INDEX 01 39:37:52
TRACK 12 AUDIO
TITLE "Троллейбус"
PERFORMER "Кино"
INDEX 00 44:24:52
INDEX 01 44:26:37
TRACK 13 AUDIO
TITLE "Последний герой"
PERFORMER "Кино"
INDEX 00 47:19:60
INDEX 01 47:21:40
TRACK 14 AUDIO
TITLE "Группа крови"
PERFORMER "Кино"
INDEX 00 50:27:32
INDEX 01 50:29:42
TRACK 15 AUDIO
TITLE "Звезда по имени Солнце"
PERFORMER "Кино"
INDEX 00 55:14:67
INDEX 01 55:16:55
TRACK 16 AUDIO
TITLE "Бошетунмай"
PERFORMER "Кино"
INDEX 00 59:01:10
INDEX 01 59:02:37
TRACK 17 AUDIO
TITLE "Пачка сигарет"
PERFORMER "Кино"
INDEX 00 63:10:42
INDEX 01 63:12:25
TRACK 18 AUDIO
TITLE "Следи за собой"
PERFORMER "Кино"
INDEX 00 67:39:60
INDEX 01 67:41:55
TRACK 19 AUDIO
TITLE "Легенда"
PERFORMER "Кино"
INDEX 00 72:39:40
INDEX 01 72:41:47

Скриншот спектра частот

CD II | Зоопарк - Легенды Русского Рока / 01:13:04

Лейбл издания Moroz Records || Номер по каталогу: MR 96071 CD
01. Сладкая N (03:14)
02. Дрянь (04:59)
03. Страх В Твоих Глазах (03:59)
04. В Тот День (04:24)
05. Пригородный Блюз (02:42)
06. Гопники (04:19)
07. Если Ты Хочешь (02:46)
08. Blues De Moscou (01:29)
09. Если Будет Дождь (04:24)
10. Когда Я Знал Тебя Совсем Другой (02:35)
11. Лето (03:02)
12. Песня Гуру (04:32)
13. D.K. Danc (Мажорный Рок-Н-Ролл) (03:22)
14. Буги-Вуги Каждый День (02:20)
15. Песня Простого Человека (02:45)
16. 21-й Дубль (04:07)
17. Все В Порядке (Старые Раны) (03:47)
18. Я Возвращаюсь Домой (02:23)
19. 6 Утра (03:22)
20. Завтра Меня Здесь Не Будет (Мой Медленный Поезд) (03:34)
21. Выстрелы (05:10)

Лог создания рипа

Exact Audio Copy V1.0 beta 3 from 29. August 2011
EAC extraction logfile from 18. December 2012, 20:27
Зоопарк / Легенды Русского Рока
Used drive  : ASUS    DRW-24B3LT   Adapter: 2  ID: 0
Read mode               : Secure
Utilize accurate stream : Yes
Defeat audio cache      : Yes
Make use of C2 pointers : No
Read offset correction                      : 6
Overread into Lead-In and Lead-Out          : No
Fill up missing offset samples with silence : Yes
Delete leading and trailing silent blocks   : No
Null samples used in CRC calculations       : Yes
Used interface                              : Native Win32 interface for Win NT & 2000
Used output format : Internal WAV Routines
Sample format      : 44.100 Hz; 16 Bit; Stereo
TOC of the extracted CD
Track |   Start  |  Length  | Start sector | End sector
---------------------------------------------------------
1  |  0:00.00 |  3:13.55 |         0    |    14529
2  |  3:13.55 |  4:58.55 |     14530    |    36934
3  |  8:12.35 |  3:58.12 |     36935    |    54796
4  | 12:10.47 |  4:23.40 |     54797    |    74561
5  | 16:34.12 |  2:41.33 |     74562    |    86669
6  | 19:15.45 |  4:18.07 |     86670    |   106026
7  | 23:33.52 |  2:45.28 |    106027    |   118429
8  | 26:19.05 |  1:28.32 |    118430    |   125061
9  | 27:47.37 |  4:23.28 |    125062    |   144814
10  | 32:10.65 |  2:34.27 |    144815    |   156391
11  | 34:45.17 |  3:01.10 |    156392    |   169976
12  | 37:46.27 |  4:31.08 |    169977    |   190309
13  | 42:17.35 |  3:21.52 |    190310    |   205436
14  | 45:39.12 |  2:19.48 |    205437    |   215909
15  | 47:58.60 |  2:44.57 |    215910    |   228266
16  | 50:43.42 |  4:06.28 |    228267    |   246744
17  | 54:49.70 |  3:46.40 |    246745    |   263734
18  | 58:36.35 |  2:22.40 |    263735    |   274424
19  | 60:59.00 |  3:21.05 |    274425    |   289504
20  | 64:20.05 |  3:33.37 |    289505    |   305516
21  | 67:53.42 |  5:09.43 |    305517    |   328734
Range status and errors
Selected range
Filename D:\Osieron\Desktop\Test&Copy\Зоопарк - Легенды Русского Рока.wav
Peak level 100.0 %
Extraction speed 10.3 X
Range quality 100.0 %
Test CRC A69079A3
Copy CRC A69079A3
Copy OK
No errors occurred
AccurateRip summary
Track  1  cannot be verified as accurate (confidence 2)  [FCC99AF9], AccurateRip returned [B535C1B8]  (AR v2)
Track  2  cannot be verified as accurate (confidence 2)  [475A03BA], AccurateRip returned [B511B41F]  (AR v2)
Track  3  cannot be verified as accurate (confidence 2)  [E8323F13], AccurateRip returned [F9DC4C82]  (AR v2)
Track  4  cannot be verified as accurate (confidence 2)  [D588B05D], AccurateRip returned [8E697F2A]  (AR v2)
Track  5  cannot be verified as accurate (confidence 2)  [AA20FE22], AccurateRip returned [F82572F2]  (AR v2)
Track  6  cannot be verified as accurate (confidence 2)  [8B39AD23], AccurateRip returned [7628B7EA]  (AR v2)
Track  7  cannot be verified as accurate (confidence 2)  [2CD8717C], AccurateRip returned [ECE35E2A]  (AR v2)
Track  8  cannot be verified as accurate (confidence 2)  [3E450791], AccurateRip returned [7A6CF2E3]  (AR v2)
Track  9  cannot be verified as accurate (confidence 2)  [3469AFF9], AccurateRip returned [1E716723]  (AR v2)
Track 10  cannot be verified as accurate (confidence 2)  [563A3C6C], AccurateRip returned [6419F5E5]  (AR v2)
Track 11  cannot be verified as accurate (confidence 2)  [0569AD63], AccurateRip returned [9781CB7F]  (AR v2)
Track 12  cannot be verified as accurate (confidence 2)  [33C0B5B3], AccurateRip returned [5E857385]  (AR v2)
Track 13  cannot be verified as accurate (confidence 2)  [6BB7DD04], AccurateRip returned [F0C697C4]  (AR v2)
Track 14  cannot be verified as accurate (confidence 2)  [4AB53306], AccurateRip returned [10B12468]  (AR v2)
Track 15  cannot be verified as accurate (confidence 2)  [FA78091E], AccurateRip returned [CEB04997]  (AR v2)
Track 16  cannot be verified as accurate (confidence 2)  [8992F19F], AccurateRip returned [CCB5BE4F]  (AR v2)
Track 17  cannot be verified as accurate (confidence 2)  [F0305A5B], AccurateRip returned [08F0E008]  (AR v2)
Track 18  cannot be verified as accurate (confidence 2)  [88799467], AccurateRip returned [E3CFEFF1]  (AR v2)
Track 19  cannot be verified as accurate (confidence 2)  [053C3913], AccurateRip returned [24D8B8CE]  (AR v2)
Track 20  cannot be verified as accurate (confidence 2)  [0F8BD53D], AccurateRip returned [F39558CD]  (AR v2)
Track 21  cannot be verified as accurate (confidence 2)  [D5B8B81E], AccurateRip returned [FE4D6AD5]  (AR v2)
No tracks could be verified as accurate
You may have a different pressing from the one(s) in the database
End of status report

Индексная карта (non-compilant .cue)

REM GENRE "Rock"
REM DATE 1996
REM DISCID 49111F15
REM COMMENT "ExactAudioCopy v1.0b3"
PERFORMER "Зоопарк"
TITLE "Легенды Русского Рока"
FILE "Зоопарк - Легенды Русского Рока.flac" WAVE
TRACK 01 AUDIO
TITLE "Сладкая N"
PERFORMER "Зоопарк"
INDEX 01 00:00:00
TRACK 02 AUDIO
TITLE "Дрянь"
PERFORMER "Зоопарк"
INDEX 00 03:12:40
INDEX 01 03:13:55
TRACK 03 AUDIO
TITLE "Страх В Твоих Глазах"
PERFORMER "Зоопарк"
INDEX 00 08:12:22
INDEX 01 08:12:35
TRACK 04 AUDIO
TITLE "В Тот День"
PERFORMER "Зоопарк"
INDEX 00 12:08:62
INDEX 01 12:10:47
TRACK 05 AUDIO
TITLE "Пригородный Блюз"
PERFORMER "Зоопарк"
INDEX 00 16:32:32
INDEX 01 16:34:12
TRACK 06 AUDIO
TITLE "Гопники"
PERFORMER "Зоопарк"
INDEX 00 19:15:32
INDEX 01 19:15:45
TRACK 07 AUDIO
TITLE "Если Ты Хочешь"
PERFORMER "Зоопарк"
INDEX 01 23:33:52
TRACK 08 AUDIO
TITLE "Blues De Moscou"
PERFORMER "Зоопарк"
INDEX 00 26:18:40
INDEX 01 26:19:05
TRACK 09 AUDIO
TITLE "Если Будет Дождь"
PERFORMER "Зоопарк"
INDEX 00 27:45:65
INDEX 01 27:47:37
TRACK 10 AUDIO
TITLE "Когда Я Знал Тебя Совсем Другой"
PERFORMER "Зоопарк"
INDEX 00 32:09:65
INDEX 01 32:10:65
TRACK 11 AUDIO
TITLE "Лето"
PERFORMER "Зоопарк"
INDEX 00 34:44:05
INDEX 01 34:45:17
TRACK 12 AUDIO
TITLE "Песня Гуру"
PERFORMER "Зоопарк"
INDEX 00 37:44:55
INDEX 01 37:46:27
TRACK 13 AUDIO
TITLE "D.K. Danc (Мажорный Рок-Н-Ролл)"
PERFORMER "Зоопарк"
INDEX 00 42:17:20
INDEX 01 42:17:35
TRACK 14 AUDIO
TITLE "Буги-Вуги Каждый День"
PERFORMER "Зоопарк"
INDEX 00 45:38:50
INDEX 01 45:39:12
TRACK 15 AUDIO
TITLE "Песня Простого Человека "
PERFORMER "Зоопарк"
INDEX 00 47:58:35
INDEX 01 47:58:60
TRACK 16 AUDIO
TITLE "21-й Дубль"
PERFORMER "Зоопарк"
INDEX 00 50:43:02
INDEX 01 50:43:42
TRACK 17 AUDIO
TITLE "Все В Порядке (Старые Раны)"
PERFORMER "Зоопарк"
INDEX 00 54:49:02
INDEX 01 54:49:70
TRACK 18 AUDIO
TITLE "Я Возвращаюсь Домой"
PERFORMER "Зоопарк"
INDEX 00 58:36:17
INDEX 01 58:36:35
TRACK 19 AUDIO
TITLE "6 Утра"
PERFORMER "Зоопарк"
INDEX 00 60:57:10
INDEX 01 60:59:00
TRACK 20 AUDIO
TITLE "Завтра Меня Здесь Не Будет (Мой Медленный Поезд)"
PERFORMER "Зоопарк"
INDEX 00 64:18:07
INDEX 01 64:20:05
TRACK 21 AUDIO
TITLE "Выстрелы"
PERFORMER "Зоопарк"
INDEX 00 67:51:25
INDEX 01 67:53:42

Скриншот спектра частот

CD III | Воскресение - Легенды Русского Рока / 01:02:49

Лейбл издания Moroz Records || Номер по каталогу: MR 96073 CD
01. Все сначала (03:36)
02. Кто виноват? (04:19)
03. По дороге разочарований (05:24)
04. В жизни как темной чаще (05:53)
05. Я ни разу за морем не был (03:22)
06. Друзьям (03:26)
07. Сон (04:37)
08. Лето (03:10)
09. Сколько было звезд (03:28)
10. Так бывает («В-1») (02:58)
11. Вера, Надежда, Любовь (03:49)
12. Солдат вселенной (Я привык бродить один) (05:45)
13. Хороший парень (03:14)
14. Случилось... (04:01)
15. Есть у меня (02:50)
16. Поезд (03:06)

Лог создания рипа

Exact Audio Copy V1.0 beta 3 from 29. August 2011
EAC extraction logfile from 18. December 2012, 21:03
Воскресение / Легенды Русского Рока
Used drive  : ASUS    DRW-24B3LT   Adapter: 2  ID: 0
Read mode               : Secure
Utilize accurate stream : Yes
Defeat audio cache      : Yes
Make use of C2 pointers : No
Read offset correction                      : 6
Overread into Lead-In and Lead-Out          : No
Fill up missing offset samples with silence : Yes
Delete leading and trailing silent blocks   : No
Null samples used in CRC calculations       : Yes
Used interface                              : Native Win32 interface for Win NT & 2000
Used output format : Internal WAV Routines
Sample format      : 44.100 Hz; 16 Bit; Stereo
TOC of the extracted CD
Track |   Start  |  Length  | Start sector | End sector
---------------------------------------------------------
1  |  0:00.00 |  3:35.55 |         0    |    16179
2  |  3:35.55 |  4:18.07 |     16180    |    35536
3  |  7:53.62 |  5:23.23 |     35537    |    59784
4  | 13:17.10 |  5:52.15 |     59785    |    86199
5  | 19:09.25 |  3:21.42 |     86200    |   101316
6  | 22:30.67 |  3:25.38 |    101317    |   116729
7  | 25:56.30 |  4:36.20 |    116730    |   137449
8  | 30:32.50 |  3:09.32 |    137450    |   151656
9  | 33:42.07 |  3:27.68 |    151657    |   167249
10  | 37:10.00 |  2:57.17 |    167250    |   180541
11  | 40:07.17 |  3:48.33 |    180542    |   197674
12  | 43:55.50 |  5:44.05 |    197675    |   223479
13  | 49:39.55 |  3:13.25 |    223480    |   237979
14  | 52:53.05 |  4:00.37 |    237980    |   256016
15  | 56:53.42 |  2:49.45 |    256017    |   268736
16  | 59:43.12 |  3:05.63 |    268737    |   282674
Range status and errors
Selected range
Filename D:\Osieron\Desktop\Test&Copy\Воскресение - Легенды Русского Рока.wav
Peak level 89.1 %
Extraction speed 9.4 X
Range quality 100.0 %
Test CRC 5371A5B3
Copy CRC 5371A5B3
Copy OK
No errors occurred
AccurateRip summary
Track  1  cannot be verified as accurate (confidence 2)  [F3903156], AccurateRip returned [99327E11]  (AR v2)
Track  2  cannot be verified as accurate (confidence 2)  [0357282D], AccurateRip returned [557A8ED6]  (AR v2)
Track  3  cannot be verified as accurate (confidence 2)  [4FA0BFA1], AccurateRip returned [661C04A9]  (AR v2)
Track  4  cannot be verified as accurate (confidence 2)  [CBB1E0A9], AccurateRip returned [599D74A5]  (AR v2)
Track  5  cannot be verified as accurate (confidence 2)  [29D5C301], AccurateRip returned [8CC00BBB]  (AR v2)
Track  6  cannot be verified as accurate (confidence 2)  [A307BBE5], AccurateRip returned [D9C56A9E]  (AR v2)
Track  7  cannot be verified as accurate (confidence 2)  [19AEEDD4], AccurateRip returned [E88924D3]  (AR v2)
Track  8  cannot be verified as accurate (confidence 2)  [B979FE7C], AccurateRip returned [2327FEDF]  (AR v2)
Track  9  cannot be verified as accurate (confidence 2)  [6880AEEE], AccurateRip returned [AEAD992C]  (AR v2)
Track 10  cannot be verified as accurate (confidence 2)  [DFA7203D], AccurateRip returned [47A05DED]  (AR v2)
Track 11  cannot be verified as accurate (confidence 2)  [59522C17], AccurateRip returned [B7ECEF0F]  (AR v2)
Track 12  cannot be verified as accurate (confidence 2)  [5EA5998A], AccurateRip returned [36A9D112]  (AR v2)
Track 13  cannot be verified as accurate (confidence 2)  [E9F57768], AccurateRip returned [B7BBC593]  (AR v2)
Track 14  cannot be verified as accurate (confidence 2)  [D681102F], AccurateRip returned [6EA1504D]  (AR v2)
Track 15  cannot be verified as accurate (confidence 2)  [7ED6CBAA], AccurateRip returned [93CDA1A6]  (AR v2)
Track 16  cannot be verified as accurate (confidence 2)  [9A901511], AccurateRip returned [C36A7271]  (AR v2)
No tracks could be verified as accurate
You may have a different pressing from the one(s) in the database
End of status report

Индексная карта (non-compilant .cue)

REM GENRE "Rock"
REM DATE 1996
REM DISCID E30EB910
REM COMMENT "ExactAudioCopy v1.0b3"
PERFORMER "Воскресение"
TITLE "Легенды Русского Рока "
FILE "Воскресение - Легенды Русского Рока .flac" WAVE
TRACK 01 AUDIO
TITLE "Все сначала"
PERFORMER "Воскресение"
INDEX 01 00:00:00
TRACK 02 AUDIO
TITLE "Кто виноват?"
PERFORMER "Воскресение"
INDEX 00 03:34:30
INDEX 01 03:35:55
TRACK 03 AUDIO
TITLE "По дороге разочарований"
PERFORMER "Воскресение"
INDEX 00 07:52:07
INDEX 01 07:53:62
TRACK 04 AUDIO
TITLE "В жизни как темной чаще"
PERFORMER "Воскресение"
INDEX 00 13:15:65
INDEX 01 13:17:10
TRACK 05 AUDIO
TITLE "Я ни разу за морем не был"
PERFORMER "Воскресение"
INDEX 00 19:06:25
INDEX 01 19:09:25
TRACK 06 AUDIO
TITLE "Друзьям"
PERFORMER "Воскресение"
INDEX 00 22:29:40
INDEX 01 22:30:67
TRACK 07 AUDIO
TITLE "Сон"
PERFORMER "Воскресение"
INDEX 00 25:55:52
INDEX 01 25:56:30
TRACK 08 AUDIO
TITLE "Лето"
PERFORMER "Воскресение"
INDEX 00 30:32:00
INDEX 01 30:32:50
TRACK 09 AUDIO
TITLE "Сколько было звезд"
PERFORMER "Воскресение"
INDEX 00 33:38:57
INDEX 01 33:42:07
TRACK 10 AUDIO
TITLE "Так бывает («В-1»)"
PERFORMER "Воскресение"
INDEX 00 37:08:10
INDEX 01 37:10:00
TRACK 11 AUDIO
TITLE "Вера, Надежда, Любовь"
PERFORMER "Воскресение"
INDEX 00 40:06:32
INDEX 01 40:07:17
TRACK 12 AUDIO
TITLE "Солдат вселенной (Я привык бродить один)"
PERFORMER "Воскресение"
INDEX 00 43:53:00
INDEX 01 43:55:50
TRACK 13 AUDIO
TITLE "Хороший парень"
PERFORMER "Воскресение"
INDEX 00 49:38:12
INDEX 01 49:39:55
TRACK 14 AUDIO
TITLE "Случилось..."
PERFORMER "Воскресение"
INDEX 00 52:50:00
INDEX 01 52:53:05
TRACK 15 AUDIO
TITLE "Есть у меня"
PERFORMER "Воскресение"
INDEX 01 56:53:42
TRACK 16 AUDIO
TITLE "Поезд"
PERFORMER "Воскресение"
INDEX 01 59:43:12

Скриншот спектра частот

CD IV | Алиса - Легенды Русского Рока / 01:16:51

Лейбл издания Moroz Records || Номер по каталогу: MR 96077 CD
01. Стерх (06:55)
02. Паскуда (05:51)
03. Плач (06:06)
04. Експериментатор (05:10)
05. Солнце Встает (05:39)
06. Мое Поколение (04:03)
07. Мы Держим Путь В Сторону Леса (03:49)
08. Театр Теней (05:26)
09. Все Это Rock'N'Roll (04:34)
10. Ко Мне (04:32)
11. Соковыжиматель (03:51)
12. Меломан (04:01)
13. Красное На Черном (04:52)
14. Дурак (08:39)
15. Все В Наших Руках (03:30)

Лог создания рипа

Exact Audio Copy V1.0 beta 3 from 29. August 2011
EAC extraction logfile from 18. December 2012, 21:57
Алиса / Легенды Русского Рока
Used drive  : ASUS    DRW-24B3LT   Adapter: 2  ID: 0
Read mode               : Secure
Utilize accurate stream : Yes
Defeat audio cache      : Yes
Make use of C2 pointers : No
Read offset correction                      : 6
Overread into Lead-In and Lead-Out          : No
Fill up missing offset samples with silence : Yes
Delete leading and trailing silent blocks   : No
Null samples used in CRC calculations       : Yes
Used interface                              : Native Win32 interface for Win NT & 2000
Used output format : Internal WAV Routines
Sample format      : 44.100 Hz; 16 Bit; Stereo
TOC of the extracted CD
Track |   Start  |  Length  | Start sector | End sector
---------------------------------------------------------
1  |  0:00.00 |  6:54.05 |         0    |    31054
2  |  6:54.05 |  5:50.27 |     31055    |    57331
3  | 12:44.32 |  6:05.68 |     57332    |    84774
4  | 18:50.25 |  5:09.37 |     84775    |   107986
5  | 23:59.62 |  5:39.00 |    107987    |   133411
6  | 29:38.62 |  4:02.65 |    133412    |   151626
7  | 33:41.52 |  3:48.05 |    151627    |   168731
8  | 37:29.57 |  5:25.43 |    168732    |   193149
9  | 42:55.25 |  4:34.00 |    193150    |   213699
10  | 47:29.25 |  4:31.55 |    213700    |   234079
11  | 52:01.05 |  3:50.62 |    234080    |   251391
12  | 55:51.67 |  4:00.05 |    251392    |   269396
13  | 59:51.72 |  4:51.33 |    269397    |   291254
14  | 64:43.30 |  8:38.22 |    291255    |   330126
15  | 73:21.52 |  3:29.23 |    330127    |   345824
Range status and errors
Selected range
Filename D:\Osieron\Desktop\Test&Copy\Алиса - Легенды Русского Рока.wav
Peak level 100.0 %
Extraction speed 3.8 X
Range quality 100.0 %
Test CRC B50C32AB
Copy CRC B50C32AB
Copy OK
No errors occurred
AccurateRip summary
Track  1  accurately ripped (confidence 2)  [C39F3437]  (AR v1)
Track  2  accurately ripped (confidence 2)  [11B31AE6]  (AR v1)
Track  3  accurately ripped (confidence 2)  [6B3BD467]  (AR v1)
Track  4  accurately ripped (confidence 2)  [4009AC4C]  (AR v1)
Track  5  accurately ripped (confidence 2)  [6C282FC7]  (AR v1)
Track  6  accurately ripped (confidence 2)  [386FB51B]  (AR v1)
Track  7  accurately ripped (confidence 2)  [785DFEE9]  (AR v1)
Track  8  accurately ripped (confidence 2)  [D5848AB5]  (AR v1)
Track  9  accurately ripped (confidence 2)  [1BA1DBC2]  (AR v1)
Track 10  accurately ripped (confidence 2)  [AE98347E]  (AR v1)
Track 11  accurately ripped (confidence 2)  [086FA839]  (AR v1)
Track 12  accurately ripped (confidence 2)  [B0951FBC]  (AR v1)
Track 13  accurately ripped (confidence 2)  [7349A003]  (AR v1)
Track 14  accurately ripped (confidence 2)  [4BD4E326]  (AR v1)
Track 15  accurately ripped (confidence 2)  [1B19BE30]  (AR v1)
All tracks accurately ripped
End of status report

Индексная карта (non-compilant .cue)

REM GENRE "Rock"
REM DATE 1996
REM DISCID C512030F
REM COMMENT "ExactAudioCopy v1.0b3"
PERFORMER "Алиса"
TITLE "Легенды Русского Рока"
FILE "Алиса - Легенды Русского Рока.flac" WAVE
TRACK 01 AUDIO
TITLE "Стерх"
INDEX 01 00:00:00
TRACK 02 AUDIO
TITLE "Паскуда"
INDEX 00 06:52:35
INDEX 01 06:54:05
TRACK 03 AUDIO
TITLE "Плач"
INDEX 00 12:44:00
INDEX 01 12:44:32
TRACK 04 AUDIO
TITLE "Експериментатор"
INDEX 00 18:47:65
INDEX 01 18:50:25
TRACK 05 AUDIO
TITLE "Солнце Встает"
INDEX 00 23:57:45
INDEX 01 23:59:62
TRACK 06 AUDIO
TITLE "Мое Поколение"
INDEX 00 29:38:02
INDEX 01 29:38:62
TRACK 07 AUDIO
TITLE "Мы Держим Путь В Сторону Леса"
INDEX 00 33:40:70
INDEX 01 33:41:52
TRACK 08 AUDIO
TITLE "Театр Теней"
INDEX 00 37:29:15
INDEX 01 37:29:57
TRACK 09 AUDIO
TITLE "Все Это Rock'N'Roll"
INDEX 01 42:55:25
TRACK 10 AUDIO
TITLE "Ко Мне"
INDEX 01 47:29:25
TRACK 11 AUDIO
TITLE "Соковыжиматель"
INDEX 01 52:01:05
TRACK 12 AUDIO
TITLE "Меломан"
INDEX 00 55:50:47
INDEX 01 55:51:67
TRACK 13 AUDIO
TITLE "Красное На Черном"
INDEX 00 59:50:57
INDEX 01 59:51:72
TRACK 14 AUDIO
TITLE "Дурак"
INDEX 00 64:43:00
INDEX 01 64:43:30
TRACK 15 AUDIO
TITLE "Все В Наших Руках"
INDEX 00 73:21:30
INDEX 01 73:21:52

Скриншот спектра частот

CD V | Крематорий - Легенды Русского Рока / 01:13:11

Лейбл издания Moroz Records || Номер по каталогу: MR 96074 CD
01. Белые Столбы (03:18)
02. Лепрозорий (04:09)
03. Маленькая Девочка (02:12)
04. Твари (03:16)
05. Таня (04:03)
06. Бомба (02:27)
07. Sexy Cat (02:18)
08. Зомби (04:08)
09. Разбитое Сердце (02:26)
10. Крематорий (01:24)
11. Палковводец Красс (00:50)
12. Калигула (04:10)
13. Hare Rama (03:25)
14. Хабибулин (03:26)
15. Кондратий (01:18)
16. Павлик Морозов (05:06)
17. Последний Шанс (Собачка) (03:33)
18. Брат Во Христе (03:27)
19. Мусорный Ветер (02:53)
20. Аутсайдер (02:59)
21. Стремный Корабль (01:26)
22. Безобразная Эльза (02:56)
23. Клубника Со Льдом (03:01)
24. Ура! (01:23)
25. Сто Лет Прожитых Зря (03:48)

Лог создания рипа

Exact Audio Copy V1.0 beta 3 from 29. August 2011
EAC extraction logfile from 18. December 2012, 22:16
Крематорий / Легенды Русского Рока
Used drive  : ASUS    DRW-24B3LT   Adapter: 2  ID: 0
Read mode               : Secure
Utilize accurate stream : Yes
Defeat audio cache      : Yes
Make use of C2 pointers : No
Read offset correction                      : 6
Overread into Lead-In and Lead-Out          : No
Fill up missing offset samples with silence : Yes
Delete leading and trailing silent blocks   : No
Null samples used in CRC calculations       : Yes
Used interface                              : Native Win32 interface for Win NT & 2000
Used output format : Internal WAV Routines
Sample format      : 44.100 Hz; 16 Bit; Stereo
TOC of the extracted CD
Track |   Start  |  Length  | Start sector | End sector
---------------------------------------------------------
1  |  0:00.00 |  3:17.20 |         0    |    14794
2  |  3:17.20 |  4:08.42 |     14795    |    33436
3  |  7:25.62 |  2:11.35 |     33437    |    43296
4  |  9:37.22 |  3:15.55 |     43297    |    57976
5  | 12:53.02 |  4:02.35 |     57977    |    76161
6  | 16:55.37 |  2:26.05 |     76162    |    87116
7  | 19:21.42 |  2:17.58 |     87117    |    97449
8  | 21:39.25 |  4:07.42 |     97450    |   116016
9  | 25:46.67 |  2:25.33 |    116017    |   126924
10  | 28:12.25 |  1:23.20 |    126925    |   133169
11  | 29:35.45 |  0:49.60 |    133170    |   136904
12  | 30:25.30 |  4:10.00 |    136905    |   155654
13  | 34:35.30 |  3:24.50 |    155655    |   171004
14  | 38:00.05 |  3:25.40 |    171005    |   186419
15  | 41:25.45 |  1:17.47 |    186420    |   192241
16  | 42:43.17 |  5:05.48 |    192242    |   215164
17  | 47:48.65 |  3:32.55 |    215165    |   231119
18  | 51:21.45 |  3:26.62 |    231120    |   246631
19  | 54:48.32 |  2:52.05 |    246632    |   259536
20  | 57:40.37 |  2:58.28 |    259537    |   272914
21  | 60:38.65 |  1:25.55 |    272915    |   279344
22  | 62:04.45 |  2:55.15 |    279345    |   292484
23  | 64:59.60 |  3:00.32 |    292485    |   306016
24  | 68:00.17 |  1:22.38 |    306017    |   312204
25  | 69:22.55 |  3:47.32 |    312205    |   329261
Range status and errors
Selected range
Filename D:\Osieron\Desktop\Test&Copy\Крематорий - Легенды Русского Рока.wav
Peak level 89.1 %
Extraction speed 10.3 X
Range quality 100.0 %
Test CRC 31ADA685
Copy CRC 31ADA685
Copy OK
No errors occurred
AccurateRip summary
Track  1  accurately ripped (confidence 2)  [CC904483]  (AR v1)
Track  2  accurately ripped (confidence 2)  [F12B610F]  (AR v1)
Track  3  accurately ripped (confidence 2)  [29297D42]  (AR v1)
Track  4  accurately ripped (confidence 2)  [A0C5005D]  (AR v1)
Track  5  accurately ripped (confidence 2)  [3721B985]  (AR v1)
Track  6  accurately ripped (confidence 2)  [75BE8DA2]  (AR v1)
Track  7  accurately ripped (confidence 2)  [77C4C05F]  (AR v1)
Track  8  accurately ripped (confidence 2)  [75B312C2]  (AR v1)
Track  9  accurately ripped (confidence 2)  [1AAC114B]  (AR v1)
Track 10  accurately ripped (confidence 2)  [6365DBF1]  (AR v1)
Track 11  accurately ripped (confidence 2)  [B2E19E12]  (AR v1)
Track 12  accurately ripped (confidence 2)  [C64EFEFC]  (AR v1)
Track 13  accurately ripped (confidence 2)  [769CAB00]  (AR v1)
Track 14  accurately ripped (confidence 2)  [C5AB94DD]  (AR v1)
Track 15  accurately ripped (confidence 2)  [AC6C4CB1]  (AR v1)
Track 16  accurately ripped (confidence 2)  [4E495C3E]  (AR v1)
Track 17  accurately ripped (confidence 2)  [A8B589F8]  (AR v1)
Track 18  accurately ripped (confidence 2)  [9C7FA207]  (AR v1)
Track 19  accurately ripped (confidence 2)  [58BBAA5C]  (AR v1)
Track 20  accurately ripped (confidence 2)  [F2A1840C]  (AR v1)
Track 21  accurately ripped (confidence 2)  [3244704F]  (AR v1)
Track 22  accurately ripped (confidence 2)  [01199DDF]  (AR v1)
Track 23  accurately ripped (confidence 2)  [50FC1FE4]  (AR v1)
Track 24  accurately ripped (confidence 2)  [4C347EA5]  (AR v1)
Track 25  accurately ripped (confidence 2)  [0476B296]  (AR v1)
All tracks accurately ripped
End of status report

Индексная карта (non-compilant .cue)

REM GENRE "Rock"
REM DATE 1996
REM DISCID 7E112619
REM COMMENT "ExactAudioCopy v1.0b3"
PERFORMER "Крематорий"
TITLE "Легенды Русского Рока"
FILE "Крематорий - Легенды Русского Рока.flac" WAVE
TRACK 01 AUDIO
TITLE "Белые Столбы"
PERFORMER "Крематорий"
INDEX 01 00:00:00
TRACK 02 AUDIO
TITLE "Лепрозорий"
PERFORMER "Крематорий"
INDEX 00 03:14:60
INDEX 01 03:17:20
TRACK 03 AUDIO
TITLE "Маленькая Девочка"
PERFORMER "Крематорий"
INDEX 00 07:21:35
INDEX 01 07:25:62
TRACK 04 AUDIO
TITLE "Твари"
PERFORMER "Крематорий"
INDEX 00 09:35:52
INDEX 01 09:37:22
TRACK 05 AUDIO
TITLE "Таня"
PERFORMER "Крематорий"
INDEX 00 12:51:62
INDEX 01 12:53:02
TRACK 06 AUDIO
TITLE "Бомба"
PERFORMER "Крематорий"
INDEX 00 16:54:32
INDEX 01 16:55:37
TRACK 07 AUDIO
TITLE "Sexy Cat"
PERFORMER "Крематорий"
INDEX 00 19:19:22
INDEX 01 19:21:42
TRACK 08 AUDIO
TITLE "Зомби"
PERFORMER "Крематорий"
INDEX 00 21:38:20
INDEX 01 21:39:25
TRACK 09 AUDIO
TITLE "Разбитое Сердце"
PERFORMER "Крематорий"
INDEX 00 25:46:15
INDEX 01 25:46:67
TRACK 10 AUDIO
TITLE "Крематорий"
PERFORMER "Крематорий"
INDEX 00 28:11:72
INDEX 01 28:12:25
TRACK 11 AUDIO
TITLE "Палковводец Красс"
PERFORMER "Крематорий"
INDEX 00 29:33:10
INDEX 01 29:35:45
TRACK 12 AUDIO
TITLE "Калигула"
PERFORMER "Крематорий"
INDEX 00 30:23:47
INDEX 01 30:25:30
TRACK 13 AUDIO
TITLE "Hare Rama"
PERFORMER "Крематорий"
INDEX 00 34:34:15
INDEX 01 34:35:30
TRACK 14 AUDIO
TITLE "Хабибулин"
PERFORMER "Крематорий"
INDEX 00 37:59:00
INDEX 01 38:00:05
TRACK 15 AUDIO
TITLE "Кондратий"
PERFORMER "Крематорий"
INDEX 00 41:23:72
INDEX 01 41:25:45
TRACK 16 AUDIO
TITLE "Павлик Морозов"
PERFORMER "Крематорий"
INDEX 00 42:40:20
INDEX 01 42:43:17
TRACK 17 AUDIO
TITLE "Последний Шанс (Собачка)"
PERFORMER "Крематорий"
INDEX 01 47:48:65
TRACK 18 AUDIO
TITLE "Брат Во Христе"
PERFORMER "Крематорий"
INDEX 00 51:16:45
INDEX 01 51:21:45
TRACK 19 AUDIO
TITLE "Мусорный Ветер"
PERFORMER "Крематорий"
INDEX 00 54:46:17
INDEX 01 54:48:32
TRACK 20 AUDIO
TITLE "Аутсайдер"
PERFORMER "Крематорий"
INDEX 00 57:39:34
INDEX 01 57:40:37
TRACK 21 AUDIO
TITLE "Стремный Корабль"
PERFORMER "Крематорий"
INDEX 00 60:37:62
INDEX 01 60:38:65
TRACK 22 AUDIO
TITLE "Безобразная Эльза"
PERFORMER "Крематорий"
INDEX 00 62:03:42
INDEX 01 62:04:45
TRACK 23 AUDIO
TITLE "Клубника Со Льдом"
PERFORMER "Крематорий"
INDEX 01 64:59:60
TRACK 24 AUDIO
TITLE "Ура!"
PERFORMER "Крематорий"
INDEX 00 67:58:15
INDEX 01 68:00:17
TRACK 25 AUDIO
TITLE "Сто Лет Прожитых Зря"
PERFORMER "Крематорий"
INDEX 01 69:22:55

Скриншот спектра частот

CD VI | Nautilus Pompilius - Легенды Русского Рока / 01:13:25

Лейбл издания Moroz Records || Номер по каталогу: MR 96079 CD
01. Разлука (02:18)
02. Эта Музыка Будет Вечной (04:36)
03. Летучий Фрегат (03:43)
04. Алчи - Алчи (01:46)
05. Казанова (04:19)
06. Взгяд С Экрана (04:31)
07. Скованные Одной Цепью (04:17)
08. Князь Тишины (03:34)
09. Я Хочу Быть С Тобой (04:22)
10. Шар Цвета Хаки (02:42)
11. Бриллиантовые Дороги (03:44)
12. Тихие Игры (03:21)
13. Прогулки По Воде (03:45)
14. На Берегу Безымянной Реки (04:17)
15. Летучая Мышь (05:07)
16. Тутанхамон (04:52)
17. Титаник (05:02)
18. Дыхание (03:40)
19. Прощальное Письмо (03:39)

Лог создания рипа

Exact Audio Copy V1.0 beta 3 from 29. August 2011
EAC extraction logfile from 18. December 2012, 22:40
Nautilus Pompilius / Легенды Русского Рока
Used drive  : ASUS    DRW-24B3LT   Adapter: 2  ID: 0
Read mode               : Secure
Utilize accurate stream : Yes
Defeat audio cache      : Yes
Make use of C2 pointers : No
Read offset correction                      : 6
Overread into Lead-In and Lead-Out          : No
Fill up missing offset samples with silence : Yes
Delete leading and trailing silent blocks   : No
Null samples used in CRC calculations       : Yes
Used interface                              : Native Win32 interface for Win NT & 2000
Used output format : Internal WAV Routines
Sample format      : 44.100 Hz; 16 Bit; Stereo
TOC of the extracted CD
Track |   Start  |  Length  | Start sector | End sector
---------------------------------------------------------
1  |  0:00.00 |  2:18.00 |         0    |    10349
2  |  2:18.00 |  4:35.17 |     10350    |    30991
3  |  6:53.17 |  3:42.30 |     30992    |    47671
4  | 10:35.47 |  1:45.40 |     47672    |    55586
5  | 12:21.12 |  4:18.33 |     55587    |    74969
6  | 16:39.45 |  4:30.55 |     74970    |    95274
7  | 21:10.25 |  4:16.02 |     95275    |   114476
8  | 25:26.27 |  3:33.30 |    114477    |   130481
9  | 28:59.57 |  4:21.38 |    130482    |   150094
10  | 33:21.20 |  2:41.20 |    150095    |   162189
11  | 36:02.40 |  3:43.45 |    162190    |   178959
12  | 39:46.10 |  3:20.52 |    178960    |   194011
13  | 43:06.62 |  3:44.15 |    194012    |   210826
14  | 46:51.02 |  4:16.48 |    210827    |   230074
15  | 51:07.50 |  5:06.62 |    230075    |   253086
16  | 56:14.37 |  4:51.30 |    253087    |   274941
17  | 61:05.67 |  5:01.30 |    274942    |   297546
18  | 66:07.22 |  3:39.45 |    297547    |   314016
19  | 69:46.67 |  3:38.08 |    314017    |   330374
Range status and errors
Selected range
Filename D:\Osieron\Desktop\Test&Copy\Nautilus Pompilius - Легенды Русского Рока.wav
Peak level 100.0 %
Extraction speed 10.2 X
Range quality 99.9 %
Test CRC 5B213FA1
Copy CRC 5B213FA1
Copy OK
No errors occurred
AccurateRip summary
Track  1  cannot be verified as accurate (confidence 4)  [5832AFA4], AccurateRip returned [1E6B1F58]  (AR v2)
Track  2  cannot be verified as accurate (confidence 4)  [5EF4BBAF], AccurateRip returned [299A7606]  (AR v2)
Track  3  cannot be verified as accurate (confidence 4)  [0ECC157D], AccurateRip returned [6B234C8E]  (AR v2)
Track  4  cannot be verified as accurate (confidence 4)  [E2B41D97], AccurateRip returned [D65834ED]  (AR v2)
Track  5  cannot be verified as accurate (confidence 4)  [AF6A6610], AccurateRip returned [DBB044DD]  (AR v2)
Track  6  cannot be verified as accurate (confidence 4)  [9D50BC04], AccurateRip returned [6ED6BD50]  (AR v2)
Track  7  cannot be verified as accurate (confidence 4)  [0965BE56], AccurateRip returned [9F031C58]  (AR v2)
Track  8  cannot be verified as accurate (confidence 4)  [500C18BC], AccurateRip returned [DCBDD0CB]  (AR v2)
Track  9  cannot be verified as accurate (confidence 4)  [D46A5A46], AccurateRip returned [D9759BAD]  (AR v2)
Track 10  cannot be verified as accurate (confidence 4)  [CAB729F2], AccurateRip returned [3222836D]  (AR v2)
Track 11  cannot be verified as accurate (confidence 4)  [EDFC93D7], AccurateRip returned [B1D63A94]  (AR v2)
Track 12  cannot be verified as accurate (confidence 4)  [9E0225DE], AccurateRip returned [2D8B62FA]  (AR v2)
Track 13  cannot be verified as accurate (confidence 4)  [E9E2A409], AccurateRip returned [359ECCCB]  (AR v2)
Track 14  cannot be verified as accurate (confidence 4)  [F727D87E], AccurateRip returned [DFEB4F51]  (AR v2)
Track 15  cannot be verified as accurate (confidence 4)  [5CFF9A72], AccurateRip returned [B23CF497]  (AR v2)
Track 16  cannot be verified as accurate (confidence 4)  [A7C12343], AccurateRip returned [36CD7CFA]  (AR v2)
Track 17  cannot be verified as accurate (confidence 4)  [FB60CEEE], AccurateRip returned [21973DD8]  (AR v2)
Track 18  cannot be verified as accurate (confidence 3)  [7C5FD2C4], AccurateRip returned [6DEE2821]  (AR v2)
Track 19  cannot be verified as accurate (confidence 4)  [8DAE704B], AccurateRip returned [7387EE36]  (AR v2)
No tracks could be verified as accurate
You may have a different pressing from the one(s) in the database
End of status report

Индексная карта (non-compilant .cue)

REM GENRE "Rock"
REM DATE 1996
REM DISCID 12113513
REM COMMENT "ExactAudioCopy v1.0b3"
PERFORMER "Nautilus Pompilius"
TITLE "Легенды Русского Рока"
FILE "Nautilus Pompilius - Легенды Русского Рока.flac" WAVE
TRACK 01 AUDIO
TITLE "Разлука"
PERFORMER "Nautilus Pompilius"
INDEX 01 00:00:00
TRACK 02 AUDIO
TITLE "Эта Музыка Будет Вечной"
PERFORMER "Nautilus Pompilius"
INDEX 01 02:18:00
TRACK 03 AUDIO
TITLE "Летучий Фрегат"
PERFORMER "Nautilus Pompilius"
INDEX 00 06:49:37
INDEX 01 06:53:17
TRACK 04 AUDIO
TITLE "Алчи - Алчи"
PERFORMER "Nautilus Pompilius"
INDEX 00 10:31:50
INDEX 01 10:35:47
TRACK 05 AUDIO
TITLE "Казанова"
PERFORMER "Nautilus Pompilius"
INDEX 00 12:18:32
INDEX 01 12:21:12
TRACK 06 AUDIO
TITLE "Взгяд С Экрана"
PERFORMER "Nautilus Pompilius"
INDEX 00 16:37:17
INDEX 01 16:39:45
TRACK 07 AUDIO
TITLE "Скованные Одной Цепью"
PERFORMER "Nautilus Pompilius"
INDEX 00 21:07:00
INDEX 01 21:10:25
TRACK 08 AUDIO
TITLE "Князь Тишины"
PERFORMER "Nautilus Pompilius"
INDEX 00 25:24:50
INDEX 01 25:26:27
TRACK 09 AUDIO
TITLE "Я Хочу Быть С Тобой"
PERFORMER "Nautilus Pompilius"
INDEX 00 28:56:35
INDEX 01 28:59:57
TRACK 10 AUDIO
TITLE "Шар Цвета Хаки"
PERFORMER "Nautilus Pompilius"
INDEX 00 33:18:57
INDEX 01 33:21:20
TRACK 11 AUDIO
TITLE "Бриллиантовые Дороги"
PERFORMER "Nautilus Pompilius"
INDEX 00 35:59:47
INDEX 01 36:02:40
TRACK 12 AUDIO
TITLE "Тихие Игры"
PERFORMER "Nautilus Pompilius"
INDEX 00 39:44:32
INDEX 01 39:46:10
TRACK 13 AUDIO
TITLE "Прогулки По Воде"
PERFORMER "Nautilus Pompilius"
INDEX 00 43:05:52
INDEX 01 43:06:62
TRACK 14 AUDIO
TITLE "На Берегу Безымянной Реки"
PERFORMER "Nautilus Pompilius"
INDEX 00 46:48:52
INDEX 01 46:51:02
TRACK 15 AUDIO
TITLE "Летучая Мышь"
PERFORMER "Nautilus Pompilius"
INDEX 00 51:03:00
INDEX 01 51:07:50
TRACK 16 AUDIO
TITLE "Тутанхамон"
PERFORMER "Nautilus Pompilius"
INDEX 00 56:11:55
INDEX 01 56:14:37
TRACK 17 AUDIO
TITLE "Титаник"
PERFORMER "Nautilus Pompilius"
INDEX 00 61:02:30
INDEX 01 61:05:67
TRACK 18 AUDIO
TITLE "Дыхание"
PERFORMER "Nautilus Pompilius"
INDEX 00 66:05:27
INDEX 01 66:07:22
TRACK 19 AUDIO
TITLE "Прощальное Письмо"
PERFORMER "Nautilus Pompilius"
INDEX 00 69:42:45
INDEX 01 69:46:67

Скриншот спектра частот

об альбоме (сборнике)

«Легенды русского рока» — серия ретроспективных коллекционных альбомов-сборников групп русского рока, выпускаемая с 1996 года лейблом Moroz Records. Серия была задумана продюсерами Константином Преображенским и Василием Гавриловым. Для каждой группы или исполнителя был подготовлен отдельный альбом в серийном оформлении, разработанным Василием Гавриловым.
Сборники были выпущены в виде аудиокассет и «золотых» CD с многостраничными буклетами с иллюстрированными биографиями музыкантов. Одновременно выпускались 6 альбомов, в том числе и подарочное издание в бокс-сетах по 6 компакт-дисков.
--
Яндекс.Метрика
Рейтинг@Mail.ru