[ Сегодня на трекере фрилич! Идет свободное скачивание без начисления Download ]

(Hard Rock) Scorpions - Return To Forever (Deluxe) - 2015 [WAVPack, image+.cue, lossless]

 

Создавать темы 23-Фев-2015 22:31

-Scorpions / Return To Forever (Deluxe)-- Год издания: 2015
Страна: Germany
Жанр: Hard Rock
Продолжительность: 01:02:22-Лейбл издания: Sony Music
Страна-выпуска диска: EU
Номер по каталогу: 88875 05911 2
Формат: WAVPack
Битрейт аудио: lossless
Тип рипа: image+.cue
Наличие сканов в содержимом раздачи: да

Трэклист

01. Going Out With A Bang (03:48)
02. We Built The House (03:54)
03. Rock My Car (03:21)
04. House Of Cards (05:06)
05. All For One (02:59)
06. Rock .n` Band (03:55)
07. Catch Your Luck And Play (03:34)
08. Rollin` Home (04:04)
09. Hard Rockin` Place (04:07)
10. Eye Of The Storm (04:28)
11. The Scratch (03:42)
12. Gypsy Life (04:52)
13. The World We Used To Know (03:52)
14. Dancing With The Moonlight (03:43)
15. When The Truth Is A Lie (04:28)
16. Who We Are (02:34)

Лог создания рипа

Exact Audio Copy V1.0 beta 3 from 29. August 2011
EAC extraction logfile from 23. February 2015, 13:47
Scorpions / Return To Forever (Deluxe)
Used drive  : PIONEER DVD-RW  DVR-111L   Adapter: 4  ID: 0
Read mode               : Secure
Utilize accurate stream : Yes
Defeat audio cache      : Yes
Make use of C2 pointers : No
Read offset correction                      : 48
Overread into Lead-In and Lead-Out          : No
Fill up missing offset samples with silence : Yes
Delete leading and trailing silent blocks   : No
Null samples used in CRC calculations       : Yes
Used interface                              : Installed external ASPI interface
Used output format              : User Defined Encoder
Selected bitrate                : 128 kBit/s
Quality                         : High
Add ID3 tag                     : No
Command line compressor         : C:\Program Files (x86)\Exact Audio Copy\wavpack-4.60.1\wavpack.exe
Additional command line options : -hm -w "Year=%year%" -w "Genre=%genre%" %source% %dest%
TOC of the extracted CD
Track |   Start  |  Length  | Start sector | End sector
---------------------------------------------------------
1  |  0:00.00 |  3:47.26 |         0    |    17050
2  |  3:47.26 |  3:53.67 |     17051    |    34592
3  |  7:41.18 |  3:20.60 |     34593    |    49652
4  | 11:02.03 |  5:05.51 |     49653    |    72578
5  | 16:07.54 |  2:58.18 |     72579    |    85946
6  | 19:05.72 |  3:54.62 |     85947    |   103558
7  | 23:00.59 |  3:33.17 |    103559    |   119550
8  | 26:34.01 |  4:03.59 |    119551    |   137834
9  | 30:37.60 |  4:06.72 |    137835    |   156356
10  | 34:44.57 |  4:27.67 |    156357    |   176448
11  | 39:12.49 |  3:41.34 |    176449    |   193057
12  | 42:54.08 |  4:51.71 |    193058    |   214953
13  | 47:46.04 |  3:51.65 |    214954    |   232343
14  | 51:37.69 |  3:42.13 |    232344    |   249006
15  | 55:20.07 |  4:27.39 |    249007    |   269070
16  | 59:47.46 |  2:33.53 |    269071    |   280598
Range status and errors
Selected range
Filename G:\Rips by Alder\Scorpions - Return To Forever (Deluxe).wav
Peak level 99.8 %
Extraction speed 6.3 X
Range quality 99.9 %
Test CRC 91BFF522
Copy CRC 91BFF522
Copy OK
No errors occurred
AccurateRip summary
Track  1  not present in database
Track  2  not present in database
Track  3  not present in database
Track  4  not present in database
Track  5  not present in database
Track  6  not present in database
Track  7  not present in database
Track  8  not present in database
Track  9  not present in database
Track 10  not present in database
Track 11  not present in database
Track 12  not present in database
Track 13  not present in database
Track 14  not present in database
Track 15  not present in database
Track 16  not present in database
None of the tracks are present in the AccurateRip database
End of status report

Индексная карта (non-compilant .cue)

REM GENRE Rock
REM DATE 2015
REM DISCID 0C0E9D10
REM COMMENT "ExactAudioCopy v1.0b3"
PERFORMER "Scorpions"
TITLE "Return To Forever (Deluxe)"
FILE "Scorpions - Return To Forever (Deluxe).wv" WAVE
TRACK 01 AUDIO
TITLE "Going Out With A Bang"
PERFORMER "Scorpions"
INDEX 01 00:00:00
TRACK 02 AUDIO
TITLE "We Built The House"
PERFORMER "Scorpions"
INDEX 01 03:47:26
TRACK 03 AUDIO
TITLE "Rock My Car"
PERFORMER "Scorpions"
INDEX 01 07:41:18
TRACK 04 AUDIO
TITLE "House Of Cards"
PERFORMER "Scorpions"
INDEX 01 11:02:03
TRACK 05 AUDIO
TITLE "All For One"
PERFORMER "Scorpions"
INDEX 01 16:07:54
TRACK 06 AUDIO
TITLE "Rock .n` Band"
PERFORMER "Scorpions"
INDEX 01 19:05:72
TRACK 07 AUDIO
TITLE "Catch Your Luck And Play"
PERFORMER "Scorpions"
INDEX 01 23:00:59
TRACK 08 AUDIO
TITLE "Rollin` Home"
PERFORMER "Scorpions"
INDEX 01 26:34:01
TRACK 09 AUDIO
TITLE "Hard Rockin` Place"
PERFORMER "Scorpions"
INDEX 01 30:37:60
TRACK 10 AUDIO
TITLE "Eye Of The Storm"
PERFORMER "Scorpions"
INDEX 01 34:44:57
TRACK 11 AUDIO
TITLE "The Scratch"
PERFORMER "Scorpions"
INDEX 01 39:12:49
TRACK 12 AUDIO
TITLE "Gypsy Life"
PERFORMER "Scorpions"
INDEX 01 42:54:08
TRACK 13 AUDIO
TITLE "The World We Used To Know"
PERFORMER "Scorpions"
INDEX 01 47:46:04
TRACK 14 AUDIO
TITLE "Dancing With The Moonlight"
PERFORMER "Scorpions"
INDEX 01 51:37:69
TRACK 15 AUDIO
TITLE "When The Truth Is A Lie"
PERFORMER "Scorpions"
INDEX 01 55:20:07
TRACK 16 AUDIO
TITLE "Who We Are"
PERFORMER "Scorpions"
INDEX 01 59:47:46
--
Яндекс.Метрика
Рейтинг@Mail.ru