(Hard Rock) Eclipse - Armageddonize - 2015 [FLAC, image+.cue, lossless]

 

Создавать темы 23-Фев-2015 14:31

-Eclipse / Armageddonize-- Год издания: 2015
Страна: Sweden
Жанр: Hard Rock
Продолжительность: 00:45:23-Лейбл издания: Avalon Marguee
Страна-выпуска диска: Japan
Номер по каталогу: MICP - 11201
Формат: FLAC
Битрейт аудио: lossless
Тип рипа: image+.cue
Наличие сканов в содержимом раздачи: да

Трэклист

01. I Don't Wanna Say I'm Sorry (04:25)
02. Stand On Your Feet (03:46)
03. The Storm (03:28)
04. Blood Enemies (04:28)
05. Wide Open (04:00)
06. Live Like I'm Dying (04:50)
07. Breakdown (03:44)
08. Love Bites (03:18)
09. Caught Up In The Rush (03:16)
10. One LIfe - My Life (03:57)
11. All Died Young (03:14)
12. The Storm (acoustic bonus) (03:02)

Лог создания рипа

Exact Audio Copy V1.0 beta 3 from 29. August 2011
EAC extraction logfile from 20. February 2015, 16:22
Eclipse / Armageddonize
Used drive  : SlimtypeDVD A  DS8A5SH   Adapter: 0  ID: 0
Read mode               : Secure
Utilize accurate stream : Yes
Defeat audio cache      : Yes
Make use of C2 pointers : No
Read offset correction                      : 6
Overread into Lead-In and Lead-Out          : No
Fill up missing offset samples with silence : Yes
Delete leading and trailing silent blocks   : No
Null samples used in CRC calculations       : Yes
Used interface                              : Installed external ASPI interface
Used output format              : User Defined Encoder
Selected bitrate                : 320 kBit/s
Quality                         : High
Add ID3 tag                     : No
Command line compressor         : C:\Program Files (x86)\Exact Audio Copy\Flac\flac.exe
Additional command line options : -V -8 -T "Date=%year%" -T "Genre=%genre%" %source%
TOC of the extracted CD
Track |   Start  |  Length  | Start sector | End sector
---------------------------------------------------------
1  |  0:00.00 |  4:24.69 |         0    |    19868
2  |  4:24.69 |  3:45.33 |     19869    |    36776
3  |  8:10.27 |  3:27.70 |     36777    |    52371
4  | 11:38.22 |  4:27.63 |     52372    |    72459
5  | 16:06.10 |  3:59.36 |     72460    |    90420
6  | 20:05.46 |  4:49.29 |     90421    |   112124
7  | 24:55.00 |  3:43.31 |    112125    |   128880
8  | 28:38.31 |  3:17.26 |    128881    |   143681
9  | 31:55.57 |  3:15.34 |    143682    |   158340
10  | 35:11.16 |  3:56.05 |    158341    |   176045
11  | 39:07.21 |  3:13.66 |    176046    |   190586
12  | 42:21.12 |  3:01.36 |    190587    |   204197
Range status and errors
Selected range
Filename D:\My Music\Eclipse - 2015 Armageddonize (Japanese Edition)\Eclipse - Armageddonize.wav
Peak level 94.4 %
Extraction speed 1.7 X
Range quality 100.0 %
Test CRC 855F3007
Copy CRC 855F3007
Copy OK
No errors occurred
End of status report

Индексная карта (non-compilant .cue)

REM GENRE "Melodic Hard Rock"
REM DATE 2015
REM DISCID 9F0AA20C
REM COMMENT "ExactAudioCopy v1.0b3"
PERFORMER "Eclipse"
TITLE "Armageddonize"
FILE "Eclipse - Armageddonize.flac" WAVE
TRACK 01 AUDIO
TITLE "I Don't Wanna Say I'm Sorry"
PERFORMER "Eclipse"
INDEX 01 00:00:00
TRACK 02 AUDIO
TITLE "Stand On Your Feet"
PERFORMER "Eclipse"
INDEX 01 04:24:69
TRACK 03 AUDIO
TITLE "The Storm"
PERFORMER "Eclipse"
INDEX 00 08:10:23
INDEX 01 08:10:27
TRACK 04 AUDIO
TITLE "Blood Enemies"
PERFORMER "Eclipse"
INDEX 00 11:37:50
INDEX 01 11:38:22
TRACK 05 AUDIO
TITLE "Wide Open"
PERFORMER "Eclipse"
INDEX 01 16:06:10
TRACK 06 AUDIO
TITLE "Live Like I'm Dying"
PERFORMER "Eclipse"
INDEX 00 20:05:18
INDEX 01 20:05:46
TRACK 07 AUDIO
TITLE "Breakdown"
PERFORMER "Eclipse"
INDEX 00 24:53:00
INDEX 01 24:55:00
TRACK 08 AUDIO
TITLE "Love Bites"
PERFORMER "Eclipse"
INDEX 00 28:38:11
INDEX 01 28:38:31
TRACK 09 AUDIO
TITLE "Caught Up In The Rush"
PERFORMER "Eclipse"
INDEX 00 31:55:17
INDEX 01 31:55:57
TRACK 10 AUDIO
TITLE "One LIfe - My Life"
PERFORMER "Eclipse"
INDEX 00 35:09:36
INDEX 01 35:11:16
TRACK 11 AUDIO
TITLE "All Died Young"
PERFORMER "Eclipse"
INDEX 00 39:06:29
INDEX 01 39:07:21
TRACK 12 AUDIO
TITLE "The Storm (acoustic bonus)"
PERFORMER "Eclipse"
INDEX 00 42:17:12
INDEX 01 42:21:12

Лог Audiochecker

AUDIOCHECKER v2.0 beta (build 457) - by Dester - [email protected]
~~~~~~~~~~~~~~~~~~~~~~~~~~~~~~~~~~
Started at: понедельник, 23. 02. 2015. - 13:22.33
1 file found
1 -===- D:\Torrent files\Eclipse - Armageddonize (2015) FLAC\Eclipse - Armageddonize.flac
Extracted successfully
Conclusion: this track is CDDA with probability 100%
Tempfile successfully deleted.

Скриншот спектра частот

--Не забываем говорить
Яндекс.Метрика
Рейтинг@Mail.ru