[ Сегодня на трекере фрилич! Идет свободное скачивание без начисления Download ]

Сверхъестественное / Supernatural (Сезон 10 / Серии 14 из 23) (Роберт Сингер / Robert Singer ...) [2014г., Ужасы, Фэнтези, Триллер, Драма, Детектив, WEB-DLRip, 720р] MVO (LostFilm) [обновляемая]

 

Создавать темы 23-Фев-2015 05:15

Сверхъестественное / Supernatural
«Небесная справедливость в действии»
- Русское название: Сверхъестественное
Оригинальное название: Supernatural
Страна: США
Год выпуска: 2014
Жанр: Ужасы, Фэнтези, Триллер, Драма, Детектив-Премьера (мир): 13 сентября 2005, ...
Премьера (РФ): 18 февраля 2007-Озвучка: Студия
Перевод: Многоголосый закадровый, профессиональный-Режиссер: Роберт Сингер / Robert Singer, Филип Сгриккиа / Philip Sgriccia, Ким Мэннерс / Kim Manners ...
В главных ролях: Джаред Падалеки, Дженсен Эклс, Джим Бивер, Миша Коллинз, Марк Шеппард, Марк Пеллегрино, Женевьев Падалеки, Кэти Кэссиди, Джеймс Патрик Стюарт, Саманта Феррис ...
Роли дублировали: Василий Дахненко, Михаил Тихонов, Олег Щербинин, Ольга Шорохова, Наталья Грачева ...-Описание фильма:
Два брата Дин и Сэм Винчестеры путешествуют по стране в поисках своего пропавшего отца, встречая на своём пути разную нечисть и сражаясь с ней.
Когда братья были совсем маленькими, их мать погибла при ужасных и необъяснимых обстоятельствах. С тех пор отец Дина и Сэма посвящает себя поискам той нечисти по вине которой погибла его любимая жена. Сыновья становятся ему помощниками. Повзрослев, Сэм решает отдалиться от постоянной борьбы со сверхъестественным и начать нормальную жизнь, поступить в университет. Но в его жизнь врывается брат Дин, который сообщает, что отец пропал и от него нет вестей уже несколько дней. Сэм решает согласиться на небольшое путешествие, но только на пару дней. Вот только пары дней для этого дела окажется мало...
Им не суждено жить нормальной жизнью. Их жизнь это борьба с нечистой силой. Они должны отыскать своего отца и узнать тайну гибели их матери.-Сезон: 10
Серии: 14 из 23 серий
Продолжительность: ~ 00:42:00 мин серия-
Качество видео: WEB-DLRip 720р
Формат: MKV
Видеокодек: AVC ([email protected])
Аудиокодек: AAC
Видео: AVC at 4000 Кбит/сек: 1280 x 720 (1.778) at 23.976 fps
Аудио Rus: AAC at 265 Кбит/сек: 2 канала, 48,0 КГц |LostFilm|
- -

Список серий:

  • Чернота (Black)
  • Рейхенбах (Reichenbach)
  • Исцелённая душа (Soul Survivor)
  • Бумажная луна (Paper Moon)
  • Фанфики (Fan Fiction)
  • Спросите у Дживса (Ask Jeeves)
  • Ох уж эти девчонки (Girls, Girls, Girls)
  • Полиция Хиббинга спешит на помощь (Hibbing 911)
  • Что осталось после нас (The Things We Left Behind)
  • Игры охотника (The Hunter Games)
  • Нет места лучше дома (There's No Place Like Home)
  • Заметка про мальчика (About a Boy)
  • Остановись и гори (Halt & Catch Fire)
  • Песнь палача (The Executioner's Song)
-

MediaInfo:

Общее
Полное имя : E:\_Сериалы\_Сериалы\Сверхъестественное\Supernatural.s10.LostFilm.720р\Supernatural.S10E01.720p.WEB.rus.LostFilm.TV.mkv
Формат : MPEG-4
Профиль формата : Base Media
Идентификатор кодека : isom
Размер файла : 1,25 Гбайт
Продолжительность : 42 м.
Режим общего битрейта : Переменный
Общий поток : 4208 Кбит/сек
Коллекция : Сверхъестественное
Сезон : 10
Альбом : Сверхъестественное, Сезон 10
Альбом/Исполнитель : Сверхъестественное
Часть : 1
Часть/Положение : 10
Трек : Черное
Трек/Положение : 1
Исполнитель : Сверхъестественное
Жанр : Sci-Fi & Fantasy
Тип содержимого : TV Show
Дата записи : 2014
Дата кодирования : UTC 2014-10-10 20:52:43
Дата пометки : UTC 2014-10-10 20:52:43
Программа кодирования : Yamb 2.1.0.0 []http://yamb.unite-video.com] / LostCoder
Обложка : Yes
Примечание : Спасать людей, охотиться на нечисть - семейное дело братьев Винчестеров.
Part_ID : 1001
Видео
Идентификатор : 1
Формат : AVC
Формат/Информация : Advanced Video Codec
Профиль формата : [email protected]
Параметр CABAC формата : Нет
Параметр ReFrames формата : 4 кадра
Идентификатор кодека : avc1
Идентификатор кодека/Информация : Advanced Video Coding
Продолжительность : 42 м.
Битрейт : 4000 Кбит/сек
Максимальный битрейт : 6339 Кбит/сек
Ширина : 1280 пикселей
Высота : 720 пикселей
Соотношение сторон : 16:9
Режим частоты кадров : Постоянный
Частота кадров : 23,976 кадра/сек
Цветовое пространство : YUV
Субдискретизация насыщенности : 4:2:0
Битовая глубина : 8 бит
Тип развёртки : Прогрессивная
Бит/(Пиксели*Кадры) : 0.181
Размер потока : 1,16 Гбайт (93%)
Заголовок : Imported with GPAC 0.4.6-DEV (internal rev. 5)
Библиотека кодирования : x264 core 112 r1834 a51816a
Настройки программы : cabac=0 / ref=3 / deblock=1:0:0 / analyse=0x3:0x113 / me=hex / subme=7 / psy=1 / psy_rd=1.00:0.00 / mixed_ref=1 / me_range=16 / chroma_me=1 / trellis=1 / 8x8dct=1 / cqm=0 / deadzone=21,11 / fast_pskip=1 / chroma_qp_offset=-2 / threads=6 / sliced_threads=0 / nr=0 / decimate=1 / interlaced=0 / constrained_intra=0 / bframes=3 / b_pyramid=2 / b_adapt=1 / b_bias=0 / direct=1 / weightb=1 / open_gop=0 / weightp=2 / keyint=250 / keyint_min=25 / scenecut=40 / intra_refresh=0 / rc_lookahead=40 / rc=abr / mbtree=1 / bitrate=4000 / ratetol=1.0 / qcomp=0.60 / qpmin=0 / qpmax=51 / qpstep=4 / vbv_maxrate=5000 / vbv_bufsize=2000 / ip_ratio=1.40 / aq=1:1.00 / nal_hrd=none
Дата кодирования : UTC 2014-10-10 20:50:07
Дата пометки : UTC 2014-10-10 20:53:00
Аудио
Идентификатор : 2
Формат : AAC
Формат/Информация : Advanced Audio Codec
Профиль формата : LC
Идентификатор кодека : 40
Продолжительность : 42 м.
Вид битрейта : Переменный
Битрейт : 265 Кбит/сек
Максимальный битрейт : 324 Кбит/сек
Каналы : 2 канала
Расположение каналов : Front: L R
Частота : 48,0 КГц
Метод сжатия : С потерями
Размер потока : 81,7 Мбайт (6%)
Дата кодирования : UTC 2014-10-10 20:52:47
Дата пометки : UTC 2014-10-10 20:53:00
-

Скриншот c названием фильма

-Скриншоты:
-

Еще

-

Внимание! Раздача ведётся путём добавления новых серий!

Раздача ведётся путём добавления новых серий; при каждом добавлении создаётся новый торрент.
Чтобы начать докачку новой серии, пользователям необходимо сделать следующее:
1. остановить скачивание,
2. удалить старый торрент у себя из клиента (старые серии удалять не надо),
3. скачать новый торрент и запустить его у себя в клиенте вместо старого, при этом указать клиенту путь в старую папку, куда и должно происходить скачивание новых серий.
Ваш клиент при этом должен произвести хеширование (проверку) старой папки (если не производит сам - помогите ему сделать это), и будет докачивать только те серии которых у вас ещё нет. Старые серии при этом не удаляются, а продолжают раздаваться!
Eсли вы уже удалили старые серии, то предотвратить повторную закачку старых серий можно, отжав галочку в соответствующих местах при запуске нового торрента. По возможности, желательно не удалять старые серии как можно дольше, чтобы релизёр не столько продолжал раздавать старые серии, а смог сконцентрироваться на новых.
Совет для тех, кто не хочет ждать перехеширования:
Создайте ещё одну папку рядом с папкой сериала (рядом, а не в ней!!!). Каждую новую серию после удачной загрузки копируйте в новую папку так чтобы ваша основная папка всегда была пуста. Когда ваш новый торрент предложит вам закачать все файлы, выберете только последнюю. Для сидирования же укажите адрес новой папки.
Как закачать отдельный файл из торрента или докачать ранее пропущенные файлы торрента!
-

Как закачать отдельный файл

1. Открыть торрент
2. Снять галки с тех файлов торрента, которые мы не хотим закачивать. Оставляем только на нужных нам файлах (файле).
3. Нажать О.К.
В клиенте utorrent
Инструкция
1) Открыть торрент

2) Снять галки с тех файлов торрента, которые мы не хотим закачивать:
* либо вручную, снимая с каждого файла галку( скрин №1)
* либо, нажав кнопку "Снять метки (Select None)", сняв сразу со всех файлов(скрин №2)
№1

№2

Оставляем только на нужных нам файлах (файле).

3)Нажать О.К
-Добавлена четырнадцатая серия десятого сезона
Яндекс.Метрика
Рейтинг@Mail.ru