[ Сегодня на трекере фрилич! Идет свободное скачивание без начисления Download ]

Касл / Castle (Сезон 7, Серии 15 из 24) (Роб Боумен / Rob Bowman ...) [2014г., драма, комедия, криминал, детектив, ..., WEB-DLRip] MVO (LostFilm) [Обновляемая]

 

Создавать темы 23-Фев-2015 05:13

Касл / Castle
«A whole new chapter in crime solving.»
- Русское название: Касл
Оригинальное название: Castle
Страна: США
Год выпуска: 2014
Жанр: драма, комедия, криминал, детектив, ...-Озвучка: Студия
Перевод: Многоголосый закадровый, профессиональный-Режиссер: Роб Боумен / Rob Bowman, Джон Терлески / John Terlesky, Билл Роу / Bill Roe , ...
В главных ролях: Натан Филлион, Стана Катик, Джон Уэртас, Шимус Девер, Сьюзэн Салливан, Молли С. Куинн, Тамала Джонс, Рубен Сантьяго-Хадсон, Пенни Джонсон, Ари Гросс ...
Роли дублировали: Сергей Набиев, Вероника Саркисова, Олег Куценко, Андрей Бархударов ...-Описание фильма:
Знаменитый нью-йоркский писатель Ричард "Рики" Касл получает личное разрешение от мэра города участвовать в расследованиях убойного отдела, чтобы черпать вдохновение для своих книг из работы детективов и реальной полицейской хроники.
Касл пытается доказать надменному детективу Кейт Беккет, что в расследовании убийств его блестящий ум и умение думать как преступник, еще более полезны, чем его связи с влиятельными людьми и общественное признание.
Вскоре он становится неотъемлемой частью жизни убойного отдела. А дома Касла ждет любимая дочь Алексис и мать - светская львица, Марта.-Сезон: 7
Серии: 15 из 24 серий
Продолжительность: ~ 00:42:00 мин серия-
Качество видео: WEB-DLRip
Формат: AVI
Видеокодек: XviD
Аудиокодек: Mp3
Видео: MPEG-4 Visual at 1556 Кбит/сек: 720 x 400 (1.800) at 23.976 fps, 0.22 Бит/Пиксели
Аудио Rus: MPEG Audio at 192 Кбит/сек: 2 канала, 48,0 КГц |LostFilm|- -

Список серий:

  • Загнанный (Driven)
  • Монреаль (Montreal)
  • Прямая и явная угроза (Clear & Present Danger)
  • Детская игра (Child's Play)
  • Убийственный мем (Meme Is Murder)
  • Время нашей жизни (The Time of Our Lives)
  • То, что мы хороним (The Things We Bury)
  • Аварийная остановка (Kill Switch)
  • Последний киногерой (Last Action Hero)
  • Плохой Санта (Bad Santa)
  • Частный сыщик Касл (Castle, P.I.)
  • Частный сыщик Карамба! (Private Eye Caramba!)
  • Я - свидетель (I, Witness)
  • Воскрешение (Resurrection)
  • Расплата (Reckoning)
-

MediaInfo:

Общее
Полное имя : E:\_Сериалы\Касл\Castle.S07.LostFilm\Castle.S07E01.rus.LostFilm.TV.avi
Формат : AVI
Формат/Информация : Audio Video Interleave
Размер файла : 535 Мбайт
Продолжительность : 42 м.
Режим общего битрейта : Переменный
Общий поток : 1758 Кбит/сек
Программа кодирования : Nandub v1.0rc2
Библиотека кодирования : Nandub build 1853/release
Видео
Идентификатор : 0
Формат : MPEG-4 Visual
Профиль формата : Advanced [email protected]
Параметр BVOP формата : Нет
Параметр QPel формата : Нет
Параметр GMC формата : Без точки перехода
Параметр матрицы формата : Default (H.263)
Идентификатор кодека : XVID
Идентификатор кодека/Подсказка : XviD
Продолжительность : 42 м.
Битрейт : 1556 Кбит/сек
Ширина : 720 пикселей
Высота : 400 пикселей
Соотношение сторон : 16:9
Частота кадров : 23,976 кадра/сек
Цветовое пространство : YUV
Субдискретизация насыщенности : 4:2:0
Битовая глубина : 8 бит
Тип развёртки : Прогрессивная
Метод сжатия : С потерями
Бит/(Пиксели*Кадры) : 0.225
Размер потока : 473 Мбайт (89%)
Библиотека кодирования : XviD 1.2.1 (UTC 2008-12-04)
Аудио
Идентификатор : 1
Формат : MPEG Audio
Версия формата : Version 1
Профиль формата : Layer 3
Режим : Joint stereo
Расширение режима : MS Stereo
Идентификатор кодека : 55
Идентификатор кодека/Подсказка : MP3
Продолжительность : 42 м.
Вид битрейта : Переменный
Битрейт : 192 Кбит/сек
Каналы : 2 канала
Частота : 48,0 КГц
Метод сжатия : С потерями
Размер потока : 57,4 Мбайт (11%)
Выравнивание : Соединение по промежуткам
Продолжительность промежутка : 24 мс. (0,58 видеокадр)
Время предзагрузки промежутка : 439 мс.
Библиотека кодирования : LAME3.97b
Настройки программы : -m j -V 4 -q 3 -lowpass 18.6 --abr 192
-

Скриншот c названием фильма

-Скриншоты:
-

Еще

-

Внимание! Раздача ведётся путём добавления новых серий!

Раздача ведётся путём добавления новых серий; при каждом добавлении создаётся новый торрент.
Чтобы начать докачку новой серии, пользователям необходимо сделать следующее:
1. остановить скачивание,
2. удалить старый торрент у себя из клиента (старые серии удалять не надо),
3. скачать новый торрент и запустить его у себя в клиенте вместо старого, при этом указать клиенту путь в старую папку, куда и должно происходить скачивание новых серий.
Ваш клиент при этом должен произвести хеширование (проверку) старой папки (если не производит сам - помогите ему сделать это), и будет докачивать только те серии которых у вас ещё нет. Старые серии при этом не удаляются, а продолжают раздаваться!
Eсли вы уже удалили старые серии, то предотвратить повторную закачку старых серий можно, отжав галочку в соответствующих местах при запуске нового торрента. По возможности, желательно не удалять старые серии как можно дольше, чтобы релизёр не столько продолжал раздавать старые серии, а смог сконцентрироваться на новых.
Совет для тех, кто не хочет ждать перехеширования:
Создайте ещё одну папку рядом с папкой сериала (рядом, а не в ней!!!). Каждую новую серию после удачной загрузки копируйте в новую папку так чтобы ваша основная папка всегда была пуста. Когда ваш новый торрент предложит вам закачать все файлы, выберете только последнюю. Для сидирования же укажите адрес новой папки.
Как закачать отдельный файл из торрента или докачать ранее пропущенные файлы торрента!
-

Как закачать отдельный файл

1. Открыть торрент
2. Снять галки с тех файлов торрента, которые мы не хотим закачивать. Оставляем только на нужных нам файлах (файле).
3. Нажать О.К.
В клиенте utorrent
Инструкция
1) Открыть торрент

2) Снять галки с тех файлов торрента, которые мы не хотим закачивать:
* либо вручную, снимая с каждого файла галку( скрин №1)
* либо, нажав кнопку "Снять метки (Select None)", сняв сразу со всех файлов(скрин №2)
№1

№2

Оставляем только на нужных нам файлах (файле).

3)Нажать О.К
-Добавлена пятнадцатая серия седьмого сезона
Яндекс.Метрика
Рейтинг@Mail.ru