Таймлесс 2: Сапфировая книга / Saphirblau (Феликс Фуксштайнер / Felix Fuchssteiner, Катарина Шёде / Katharina Schöde) [2014 г., фантастика, фэнтези, драма, мелодрама, детектив, HDRip] MVO (Лицензия)

 

Создавать темы 23-Фев-2015 04:52

-Таймлесс 2: Сапфировая книга / Saphirblau- Производство: Германия
Год выпуска: 2014 г.
Жанр: фантастика, фэнтези, драма, мелодрама, детектив
Продолжительность: 01:56:06
Мировая премьера: 7 августа 2014
Российская премьера: 25 сентября 2014, «Utopia Pictures»
Дата выхода DVD: 27 ноября 2014, «CD Land»
Перевод: Профессиональный (многоголосый, закадровый) [Лицензия]-Режиссер: Феликс Фуксштайнер / Felix Fuchssteiner, Катарина Шёде / Katharina Schöde
В ролях: Мария Эрих, Яннис Нивёнер, Петер Симонишек, Йозефина Пройсс, Флориан Бартоломай, Руфус Бек, Лаура Берлин, Сандра Боргманн, Юстина дель Корте, Вероника Феррес-Описание: Приключения юной Гвендолин Шеферд продолжаются. Она начинает все больше узнавать о тайнах мира путешественников во времени. Ей предстоит разгадать больше загадок и научиться быть светской леди для приемов в 18 веке. Гвендолин узнает больше о своей семье, в первую очередь о ее дедушке Лукасе. Также Гвен подозревает, что Гидеон скрывает что-то от нее, возможно какую-то сокровенную страшную тайну… Но с появлением нового, слегка надоедливого друга Ксемериуса, девушке становится легче преодолевать все препятствия на пути.- -Качество видео: HDRip
Контейнер: AVI
Видео кодек: XviD
Аудио кодек: AC3
Видео: 720x304 (2.37:1), 24 fps, XviD build 50 ~1344 kbps avg, 0.26 bit/pixel
Аудио: 48 kHz, AC3 Dolby Digital, 3/2 (L,C,R,l,r) + LFE ch, ~448 kbps
Cубтитры: отсутствуют

Media Info

General
Complete name : D:\Tajmless.2.2014.P.HDRip.1.46GB.avi
Format : AVI
Format/Info : Audio Video Interleave
File size : 1.46 GiB
Duration : 1h 56mn
Overall bit rate : 1 801 Kbps
Writing application : VirtualDubMod 1.5.10.3 | www.virtualdub-fr.org || (build 2550/release)
Writing library : VirtualDubMod build 2550/release
Video
ID : 0
Format : MPEG-4 Visual
Format profile : Advanced [email protected]
Format settings, BVOP : 2
Format settings, QPel : No
Format settings, GMC : No warppoints
Format settings, Matrix : Default (MPEG)
Codec ID : XVID
Codec ID/Hint : XviD
Duration : 1h 56mn
Bit rate : 1 344 Kbps
Width : 720 pixels
Height : 304 pixels
Display aspect ratio : 2.35:1
Frame rate : 24.000 fps
Color space : YUV
Chroma subsampling : 4:2:0
Bit depth : 8 bits
Scan type : Progressive
Compression mode : Lossy
Bits/(Pixel*Frame) : 0.256
Stream size : 1.09 GiB (75%)
Writing library : XviD 1.2.1 (UTC 2008-12-04)
Audio
ID : 1
Format : AC-3
Format/Info : Audio Coding 3
Mode extension : CM (complete main)
Format settings, Endianness : Big
Codec ID : 2000
Duration : 1h 56mn
Bit rate mode : Constant
Bit rate : 448 Kbps
Channel(s) : 6 channels
Channel positions : Front: L C R, Side: L R, LFE
Sampling rate : 48.0 KHz
Bit depth : 16 bits
Compression mode : Lossy
Stream size : 372 MiB (25%)
Alignment : Split accross interleaves
Interleave, duration : 42 ms (1.00 video frame)
Interleave, preload duratio : 500 ms

Скриншоты

Яндекс.Метрика
Рейтинг@Mail.ru