Флэш / The Flash / Сезон: 1 / Серии: 1-14 (23) (Дэвид Наттер / David Nutter, Джесси Уарн / Jesse Warn) [2014-2015 гг., фантастика, фэнтези, боевик, WEB-DL, 720p] MVO (LostFilm) + Original (Eng) + Sub (Eng)[обновляемая]

 

Создавать темы 23-Фев-2015 04:51

-Флэш / The Flash
«Discover what makes a hero»
(1 сезон)
-- Производство: США
Жанр: фантастика, фэнтези, боевик
Год выпуска: 2014-2015 гг.
Продолжительность: 14х ~00:43:00
Мировая премьера: 7 октября 2014
Перевод: Профессиональный (многоголосый, закадровый) [LostFilm]
Оригинальный аудиопоток: английский
Режиссер: Дэвид Наттер / David Nutter, Джесси Уарн / Jesse Warn-В ролях: Грант Гастин, Кэндис Паттон, Рик Коснетт, Даниэль Панабэйкер, Карлос Валдес, Томас Кэвэна, Джесси Л. Мартин, Патрик Сабонгуй, Грег Финли, Вентворт Миллер-Описание: Из-за несчастного случая судмедэксперт Барри Аллен приобретает способность передвигаться с невероятной скоростью. Этот случай делает из него супергероя, которым он всегда мечтал стать...
- - -Качество видео: WEB-DL
Контейнер: MKV
Стандарт разрешения: 720p
Видео кодек: H.264/AVC
Аудио кодек: AC3
Видео: 1280x718 at 23.976 fps, ~4000 kbps avg
Аудио: Russian: 48 kHz, AC3, 3/2 (L,C,R,l,r) + LFE ch, ~384.00 kbps avg |Многоголосый закадровый, Lostfilm|
Аудио #2: English: 48 kHz, AC3, 3/2 (L,C,R,l,r) + LFE ch, ~384.00 kbps avg
Cубтитры: English, English SDH

Список серий

Episode 1: City of Heroes / Город героев
Episode 2: Fastest Man Alive / Самый быстрый человек на Земле
Episode 3: Things You Can't Outrun / То, от чего нельзя убежать
Episode 4: Going Rogue / Да наступит беспредел
Episode 5: Plastique / Пластик
Episode 6: The Flash Is Born / Рождение Флэша
Episode 7: Power Outage / Отключение энергии
Episode 8: Flash vs. Arrow / Флэш против Стрелы
Episode 9: The Man in the Yellow Suit / Человек в желтом костюме
Episode 10: Revenge of the Rogues / Месть негодяев
Episode 11: The Sound and the Fury / Шум и ярость
Episode 12: Crazy for You / Без ума от тебя
Episode 13: The Nuclear Man / Ядерный человек
Episode 14: Fallout / Осадок

Episode 15:
Episode 16:
Episode 17:

Media Info

General
Complete name                    : J:\Uploads\Pirat.Ca\The Flash - Season 01 (2014)[WEB-DL 720p]\The Flash S01E01 City of Heroes WEB-DL 720p Rus Eng Subs.mkv
Format                           : Matroska
File size                        : 1.57 GiB
Duration                         : 44mn 33s
Overall bit rate                 : 5 042 Kbps
Movie name                       : The Flash (2014) S01E01 Город героев / City of Heroes
Encoded date                     : UTC 2014-10-11 05:50:10
Writing application              : mkvmerge v7.2.0 ('On Every Street') 64bit built on Sep 13 2014 15:52:10
Writing library                  : libebml v1.3.0 + libmatroska v1.4.1
Cover                            : Yes
Video
ID                               : 1
Format                           : AVC
Format/Info                      : Advanced Video Codec
Format profile                   : [email protected]
Format settings, CABAC           : No
Format settings, ReFrames        : 2 frames
Muxing mode                      : Container [email protected]
Codec ID                         : V_MPEG4/ISO/AVC
Duration                         : 44mn 33s
Bit rate mode                    : Variable
Bit rate                         : 4 173 Kbps
Width                            : 1 280 pixels
Height                           : 718 pixels
Display aspect ratio             : 16:9
Frame rate                       : 23.976 fps
Color space                      : YUV
Chroma subsampling               : 4:2:0
Bit depth                        : 8 bits
Scan type                        : Progressive
Bits/(Pixel*Frame)               : 0.189
Stream size                      : 1.30 GiB (83%)
Title                            : MPEG-4 AVC @ 4180 Kbps - iTunes
Language                         : English
Color primaries                  : BT.709-5, BT.1361, IEC 61966-2-4, SMPTE RP177
Transfer characteristics         : BT.709-5, BT.1361
Matrix coefficients              : BT.709-5, BT.1361, IEC 61966-2-4 709, SMPTE RP177
Audio #1
ID                               : 2
Format                           : AC-3
Format/Info                      : Audio Coding 3
Mode extension                   : CM (complete main)
Codec ID                         : A_AC3
Duration                         : 44mn 33s
Bit rate mode                    : Constant
Bit rate                         : 384 Kbps
Channel(s)                       : 6 channels
Channel positions                : Front: L C R, Side: L R, LFE
Sampling rate                    : 48.0 KHz
Bit depth                        : 16 bits
Stream size                      : 122 MiB (8%)
Title                            : AC3 5.1 @ 384 Kbps - Многоголосый закадровый, LostFilm
Language                         : Russian
Audio #2
ID                               : 3
Format                           : AC-3
Format/Info                      : Audio Coding 3
Mode extension                   : CM (complete main)
Codec ID                         : A_AC3
Duration                         : 44mn 33s
Bit rate mode                    : Constant
Bit rate                         : 384 Kbps
Channel(s)                       : 6 channels
Channel positions                : Front: L C R, Side: L R, LFE
Sampling rate                    : 48.0 KHz
Bit depth                        : 16 bits
Stream size                      : 122 MiB (8%)
Title                            : AC3 5.1 @ 384 Kbps
Language                         : English
Text #1
ID                               : 4
Format                           : UTF-8
Codec ID                         : S_TEXT/UTF8
Codec ID/Info                    : UTF-8 Plain Text
Title                            : SRT - Full
Language                         : English
Text #2
ID                               : 5
Format                           : UTF-8
Codec ID                         : S_TEXT/UTF8
Codec ID/Info                    : UTF-8 Plain Text
Title                            : SRT - Full SDH
Language                         : English

Скриншоты

Внимание! Раздача ведётся путём добавления новых серий!

Раздача ведётся путём добавления новых серий; при каждом добавлении создаётся новый торрент.
Чтобы начать докачку новой серии, пользователям необходимо сделать следующее:
1. остановить скачивание,
2. удалить старый торрент у себя из клиента (старые серии удалять не надо),
3. скачать новый торрент и запустить его у себя в клиенте вместо старого, при этом указать клиенту путь в старую папку, куда и должно происходить скачивание новых серий.
Ваш клиент при этом должен произвести хеширование (проверку) старой папки (если не производит сам - помогите ему сделать это), и будет докачивать только те серии которых у вас ещё нет. Старые серии при этом не удаляются, а продолжают раздаваться!
Eсли вы уже удалили старые серии, то предотвратить повторную закачку старых серий можно, отжав галочку в соответствующих местах при запуске нового торрента. По возможности, желательно не удалять старые серии как можно дольше, чтобы релизёр не столько продолжал раздавать старые серии, а смог сконцентрироваться на новых.
Совет для тех, кто не хочет ждать перехеширования:
Создайте ещё одну папку рядом с папкой сериала (рядом, а не в ней!!!). Каждую новую серию после удачной загрузки копируйте в новую папку так чтобы ваша основная папка всегда была пуста. Когда ваш новый торрент предложит вам закачать все файлы, выберете только последнюю. Для сидирования же укажите адрес новой папки.
Рейтинг@Mail.ru